Subcategories

Yuka Honda - Memories Are My Only Witness (2002) {Tzadik} **[REPOST]**

Posted By: TestTickles
Yuka Honda - Memories Are My Only Witness (2002) {Tzadik} **[REPOST]**

Yuka Honda - Memories Are My Only Witness (2002) {Tzadik}
EAC Rip | FLAC with CUE and log | scans | 269 mb
MP3 CBR 320kbps | RAR | 120 mb
Genre: electronic, soul, R&B, synth pop

Memories Are My Only Witness is the debut solo album from Cibo Matto member Yuka Honda, released by Tzadik in 2002. Honda is helped on the album by Duma Love, Timo Ellis, Brundt Abner, Dougie Brown, Bill Ware, and Rick Lee.

Yuka Honda - Memories Are My Only Witness (2002) {Tzadik} **[REPOST]**

1. Small Circular Motion
2. Why Do We Distrust The Machines We Made?
3. You Think You Are So Generous. But…
4. Driving Down By The Hudson River
5. Sun Beam…
6. Single Silver Bullet
7. Some Days I Say In Bed For Hours
8. Schwaltz
9. The Last One To Fall Asleep With
10. Night Diving
11. Liberation #6 - Leaving The Memories Behind

EAC extraction logfile from 27. December 2005, 11:53 for CD
Yuka Honda / Memories Are My Only Witness

Used drive : LITE-ON DVDRW SOHW-1633S Adapter: 0 ID: 0
Read mode : Secure with NO C2, accurate stream, disable cache
Read offset correction : 12
Overread into Lead-In and Lead-Out : No

Used output format : Internal WAV Routines
44.100 Hz; 16 Bit; Stereo

Other options :
Fill up missing offset samples with silence : Yes
Delete leading and trailing silent blocks : No
Installed external ASPI interface


Track 1
Filename D:\FLAC\Yuka Honda - Memories Are My Only Witness (2002) [FLAC] (Tzadik)\01 - Small Circular Motion.wav

Pre-gap length 0:00:02.00

Peak level 98.8 %
Track quality 100.0 %
Test CRC 925BFD3B
Copy CRC 925BFD3B
Copy OK

Track 2
Filename D:\FLAC\Yuka Honda - Memories Are My Only Witness (2002) [FLAC] (Tzadik)\02 - Why Do We Distrust The Machines We Made.wav

Peak level 98.8 %
Track quality 99.9 %
Test CRC 783A30D0
Copy CRC 783A30D0
Copy OK

Track 3
Filename D:\FLAC\Yuka Honda - Memories Are My Only Witness (2002) [FLAC] (Tzadik)\03 - You Think You Are So Generous, But….wav

Peak level 98.8 %
Track quality 100.0 %
Test CRC A94139C3
Copy CRC A94139C3
Copy OK

Track 4
Filename D:\FLAC\Yuka Honda - Memories Are My Only Witness (2002) [FLAC] (Tzadik)\04 - Driving Down By The Hudson River.wav

Pre-gap length 0:00:01.13

Peak level 88.0 %
Track quality 100.0 %
Test CRC 9FBCD617
Copy CRC 9FBCD617
Copy OK

Track 5
Filename D:\FLAC\Yuka Honda - Memories Are My Only Witness (2002) [FLAC] (Tzadik)\05 - Sun Beam….wav

Peak level 98.8 %
Track quality 100.0 %
Test CRC D49C4728
Copy CRC D49C4728
Copy OK

Track 6
Filename D:\FLAC\Yuka Honda - Memories Are My Only Witness (2002) [FLAC] (Tzadik)\06 - Single Silver Bullet.wav

Pre-gap length 0:00:01.16

Peak level 98.8 %
Track quality 99.9 %
Test CRC F48302CB
Copy CRC F48302CB
Copy OK

Track 7
Filename D:\FLAC\Yuka Honda - Memories Are My Only Witness (2002) [FLAC] (Tzadik)\07 - Some Days I Say In Bed For Hours.wav

Peak level 81.0 %
Track quality 100.0 %
Test CRC C84F4011
Copy CRC C84F4011
Copy OK

Track 8
Filename D:\FLAC\Yuka Honda - Memories Are My Only Witness (2002) [FLAC] (Tzadik)\08 - Schwaltz.wav

Pre-gap length 0:00:01.14

Peak level 98.8 %
Track quality 100.0 %
Test CRC 05491071
Copy CRC 05491071
Copy OK

Track 9
Filename D:\FLAC\Yuka Honda - Memories Are My Only Witness (2002) [FLAC] (Tzadik)\09 - The Last One To Fall Asleep With.wav

Pre-gap length 0:00:01.32

Peak level 98.8 %
Track quality 100.0 %
Test CRC 81164E17
Copy CRC 81164E17
Copy OK

Track 10
Filename D:\FLAC\Yuka Honda - Memories Are My Only Witness (2002) [FLAC] (Tzadik)\10 - Night Diving.wav

Pre-gap length 0:00:01.02

Peak level 98.8 %
Track quality 100.0 %
Test CRC B987B477
Copy CRC B987B477
Copy OK

Track 11
Filename D:\FLAC\Yuka Honda - Memories Are My Only Witness (2002) [FLAC] (Tzadik)\11 - Liberation #6 - Leaving The Memories Behind.wav

Peak level 83.1 %
Track quality 99.9 %
Test CRC 728CC020
Copy CRC 728CC020
Copy OK

No errors occured


End of status report


Yuka Honda - Memories Are My Only Witness (2002) {Tzadik} **[REPOST]**