Subcategories
Tags
Language
Tags

Yasmin Levy - Sentir (2009)

Posted By: popsakov
Yasmin Levy - Sentir (2009)

Yasmin Levy - Sentir (2009)
EAC Rip | FLAC (Img) + Cue + Log ~ 255 Mb | MP3 CBR320 ~ 109 Mb
Full Scans ~ 88 Mb | 00:45:00 | RAR 5% Recovery
World, Latin, Sephardic, Flamenco | Adama Music #AD20520

In Yasmin Levy’s music there is an undeniable tension between the purity of Ladino (the Judeo-Spanish music of Spain) and the fiery heart of flamenco. For her fourth album Sentir she has finally found a vision that integrates effortlessly these various musical directions. Produced by the acclaimed Javier Limón (who has worked previously with the likes of Portuguese fado star Mariza), the album’s programme draws songs not only from Ladino (’Mi Korason’, ’Londje de Mi’) and flamenco (Javier Limón’s ’Nos Llego El Final’) traditions but also contemporary material (by Javier, Yasmin) and even Leonard Cohen (in a remarkable and fresh version of ’Hallelujah’). An important factor in Yasmin’s life and musical direction has been the legacy of her father Yitzhak Levy, who died when Yasmin was only one year old. ’Una Pastora’ allows Yasmin, by the miracle of modern technology, to duet with him. With Sentir, Yasmin’s music truly becomes ’of the world’.

After the unqualified success of 2007's Mano Suave, expectations were high for this release. It certainly promised a great deal, including a duet with her long dead father on "Una Pastora," an old Ladino song. Unfortunately, it fails to reach the exquisite heights of its predecessor. On the over-arranged openers, "Mi Corason" and "El Amore Cantigo," Levy comes across not so much as impassioned but mannered, the music more chanson than Ladino, and a cover of Leonard Cohen's "Hallelujah" seems pointless. The song has been overdone and Levy brings nothing new to it, instead turning in a bland, unenthusiastic version. Things do pick up toward the end with "Una Pastora," which is spare and moving; and "Jaco" and "La Hija de Juan Simon" are as lovely as anything she's recorded, real additions to the Ladino canon. Another duet follows, this time with Greek singer Eleni Vitali. It veers headlong into Andalusian music, a style Levy knows intimately and which suits her majestic voice. Overall, however, this is an album that could – and should – have been so much more.

~ Chris Nickson, All Music

***************

Yasmin Levy - Sentir (2009)

Track List:

01. Mi Korasón [3:16]
02. El Amor Contigo [3:33]
03. Nos Llegó El Final [2:50]
04. Londje De Mi [2:46]
05. Hallelujah [4:01]
06. Una Pastora [2:05]
07. Triste Vals [5:47]
08. Jaco [4:23]
09. La Hija De Juan Simon [5:18]
10. Porque [3:58]
11. Alfonsito [3:25]
12. Yigdal [3:39]

Exact Audio Copy V0.99 prebeta 4 from 23. January 2008

EAC extraction logfile from 13. October 2009, 12:40

Yasmin Levy / Sentir

Used drive : SONY DVD-ROM DDU1615 Adapter: 3 ID: 1

Read mode : Secure
Utilize accurate stream : Yes
Defeat audio cache : Yes
Make use of C2 pointers : No

Read offset correction : 6
Overread into Lead-In and Lead-Out : No
Fill up missing offset samples with silence : Yes
Delete leading and trailing silent blocks : No
Null samples used in CRC calculations : Yes
Used interface : Installed external ASPI interface

Used output format : User Defined Encoder
Selected bitrate : 256 kBit/s
Quality : High
Add ID3 tag : No
Command line compressor : C:\Program Files\Exact Audio Copy\Flac\flac.exe
Additional command line options : –best -V -T "artist=%a" -T "title=%t" -T "album=%g" -T "date=%y" -T "tracknumber=%n" -T "genre=%m" %s


TOC of the extracted CD

Track | Start | Length | Start sector | End sector
––––––––––––––––––––––––––––-
1 | 0:00.00 | 3:16.20 | 0 | 14719
2 | 3:16.20 | 3:32.49 | 14720 | 30668
3 | 6:48.69 | 2:50.32 | 30669 | 43450
4 | 9:39.26 | 2:45.61 | 43451 | 55886
5 | 12:25.12 | 4:00.45 | 55887 | 73931
6 | 16:25.57 | 2:05.22 | 73932 | 83328
7 | 18:31.04 | 5:46.55 | 83329 | 109333
8 | 24:17.59 | 4:23.01 | 109334 | 129059
9 | 28:40.60 | 5:17.44 | 129060 | 152878
10 | 33:58.29 | 3:57.62 | 152879 | 170715
11 | 37:56.16 | 3:24.70 | 170716 | 186085
12 | 41:21.11 | 3:38.61 | 186086 | 202496


Range status and errors

Selected range

Filename E:\Rips\Yasmin Levy - Sentir.wav

Peak level 98.2 %
Range quality 100.0 %
Test CRC 6C571F00
Copy CRC 6C571F00
Copy OK

No errors occurred


AccurateRip summary

Track 1 not present in database
Track 2 not present in database
Track 3 not present in database
Track 4 not present in database
Track 5 not present in database
Track 6 not present in database
Track 7 not present in database
Track 8 not present in database
Track 9 not present in database
Track 10 not present in database
Track 11 not present in database
Track 12 not present in database

None of the tracks are present in the AccurateRip database

End of status report

foobar2000 1.2.6 / Dynamic Range Meter 1.1.1
log date: 2017-06-07 17:17:20

––––––––––––––––––––––––––––––––––––––––
Analyzed: Yasmin Levy / Sentir
––––––––––––––––––––––––––––––––––––––––

DR Peak RMS Duration Track
––––––––––––––––––––––––––––––––––––––––
DR9 -0.15 dB -12.84 dB 3:16 01-Mi Korasón
DR8 -0.15 dB -10.40 dB 3:33 02-El Amor Contigo
DR8 -0.15 dB -10.62 dB 2:50 03-Nos Llegó El Final
DR10 -0.15 dB -12.66 dB 2:46 04-Londje De Mi
DR9 -0.15 dB -11.36 dB 4:01 05-Hallelujah
DR10 -0.15 dB -12.12 dB 2:05 06-Una Pastora
DR8 -0.15 dB -12.22 dB 5:47 07-Triste Vals
DR8 -0.15 dB -9.50 dB 4:23 08-Jaco
DR11 -0.15 dB -15.87 dB 5:18 09-La Hija De Juan Simon
DR9 -0.15 dB -11.39 dB 3:58 10-Porque
DR10 -0.15 dB -13.17 dB 3:25 11-Alfonsito
DR10 -0.15 dB -13.34 dB 3:39 12-Yigdal
––––––––––––––––––––––––––––––––––––––––

Number of tracks: 12
Official DR value: DR9

Samplerate: 44100 Hz
Channels: 2
Bits per sample: 16
Bitrate: 753 kbps
Codec: FLAC
================================================================================

[CUETools log; Date: 21.09.2017 1:34:18; Version: 2.1.5]
[CTDB TOCID: ml1FyvvtddAbk6MCovtmdyfhDo0-] found.
Track | CTDB Status
1 | (61/62) Accurately ripped
2 | (62/62) Accurately ripped
3 | (62/62) Accurately ripped
4 | (61/62) Accurately ripped
5 | (62/62) Accurately ripped
6 | (62/62) Accurately ripped
7 | (61/62) Accurately ripped
8 | (61/62) Accurately ripped
9 | (61/62) Accurately ripped
10 | (61/62) Accurately ripped
11 | (60/62) Accurately ripped
12 | (61/62) Accurately ripped
[AccurateRip ID: 00131cd0-00b5bb41-a00a8b0c] found.
Track [ CRC | V2 ] Status
01 [d2a0a300|2ff829bc] (22+37/73) Accurately ripped
02 [32cec0ae|0dfcc7a9] (22+38/73) Accurately ripped
03 [daea9f0a|686358af] (21+38/73) Accurately ripped
04 [094134ba|7010bd54] (22+37/73) Accurately ripped
05 [c1d7e170|7fc467c7] (22+39/75) Accurately ripped
06 [c78b37bc|db26630f] (22+39/75) Accurately ripped
07 [09e29799|6d84a58d] (22+39/75) Accurately ripped
08 [c97918b4|74b6bc02] (22+39/75) Accurately ripped
09 [4421a658|324f79d6] (22+39/75) Accurately ripped
10 [9b54abf3|2c051c9b] (21+39/74) Accurately ripped
11 [b589da32|b32a38c2] (22+38/74) Accurately ripped
12 [0443d0c8|50309b89] (22+38/74) Accurately ripped
Offsetted by -18:
01 [4d8fdb1e] (03/73) Accurately ripped
02 [42864ad6] (03/73) Accurately ripped
03 [18757518] (03/73) Accurately ripped
04 [262b1a5f] (03/73) Accurately ripped
05 [0d7f5aa4] (03/75) Accurately ripped
06 [87d963f4] (03/75) Accurately ripped
07 [9c074616] (03/75) Accurately ripped
08 [8a09d284] (03/75) Accurately ripped
09 [9af196cc] (03/75) Accurately ripped
10 [ec83d7ca] (03/74) Accurately ripped
11 [be131ddb] (03/74) Accurately ripped
12 [f4b6d26c] (03/74) Accurately ripped
Offsetted by 583:
01 [7857f143] (03/73) Accurately ripped
02 [4c8c9c30] (02/73) Accurately ripped
03 [ac4715f0] (03/73) Accurately ripped
04 [8fd541f3] (03/73) Accurately ripped
05 [35365783] (03/75) Accurately ripped
06 [9db7cd72] (03/75) Accurately ripped
07 [8ab596e2] (03/75) Accurately ripped
08 [c83769a4] (03/75) Accurately ripped
09 [304f0aa7] (03/75) Accurately ripped
10 [d87ad657] (03/74) Accurately ripped
11 [e46e1546] (03/74) Accurately ripped
12 [034d8d08] (03/74) Accurately ripped

Track Peak [ CRC32 ] [W/O NULL] [ LOG ]
– 98,2 [6C571F00] [D9668233] CRC32
01 98,2 [139CE845] [739850FB]
02 98,2 [30D1F411] [18FD30E1]
03 98,2 [6B37C60C] [CC36F99E]
04 98,2 [83CE37F8] [41758F64]
05 98,2 [99151FE8] [DBADE359]
06 98,2 [CDD38036] [7D4BFD21]
07 98,2 [475125B6] [5D528A06]
08 98,2 [62049824] [6D73EF81]
09 98,2 [0DEBDA16] [BF2B301C]
10 98,2 [8EDB13B9] [E9305E0A]
11 98,2 [54E78326] [D0E28CE8]
12 98,2 [861896B5] [6210F1B3]

Yasmin Levy - Sentir (2009)


All thanks go to the original ripper(s) …

>>> My Blog <<<

DOWNLOAD: