Subcategories

Yehudi Menuhin - Le Violon Du Siècle (2016)

Posted By: Pisulik
Yehudi Menuhin - Le Violon Du Siècle (2016)

Yehudi Menuhin - Le Violon Du Siècle (2016)
XLD | FLAC (Tracks) +cue, log - 933 MB | MP3 CBR 320 kbps - 503 MB | 03:34:59
Classical | Label: Warner Classics | Release Year: 2016

Tonight you have proved the existence of God "Albert Einstein to Yehudi Menuhin aged 13 years. Violinist, man of peace and citizen of the world, Yehudi Menuhin left an indelible imprint on our time. This set of three CDs The Violin of the Century marks the hundredth anniversary of his birth. Thirty-nine exceptional beaches, all remastered and carefully chosen to reflect the genius of the Violin of the Century.

TRACKLIST

CD1 Concertos pour violon

01. Violin concerto no 1 in a minor bwv 1041 I allegro - Yehudi Menuhin
02. Violin concerto no 2 in e major bwv 1042 II adagio - Yehudi Menuhin
03. Le quattro stagioni the four seasons violin concer - Yehudi Menuhin
04. Viotti violin concerto no 22 in a minor g 97 II ad - Yehudi Menuhin
05. Beethoven violin concerto in d major op 61 III ron - Wilhelm Furtwangler
06. Violin concerto no 2 in e minor op 64 I allegro mo - Philharmonia Orchestra
07. Mendelssohn violin concerto in d minor mwv o 3 III - Philharmonia Orchestra
08. Tchaïkovski violin concerto in d major op 35 II ca - Royal Philharmonic Orchestra
09. Paganini violin concerto no 2 in b minor op 7 la c - Philharmonia Orchestra
10. Violin concerto no. 2 in b minor, op. 7, 'la campanella': III. rondo - la campanella - Multi-Artistes

X Lossless Decoder version 20161007 (149.3)

XLD extraction logfile from 2017-02-21 10:27:25 +0100

Various Artists / Le violon du siècle - Violin Concertos

Used drive : MATSHITA CD-RW CW-8123 (revision CA10)
Media type : Pressed CD

Ripper mode : XLD Secure Ripper
Disable audio cache : OK for the drive with a cache less than 1375KiB
Make use of C2 pointers : NO
Read offset correction : 103
Max retry count : 20
Gap status : Analyzed, Appended (except HTOA)

TOC of the extracted CD
Track | Start | Length | Start sector | End sector
––––––––––––––––––––––––––––-
1 | 00:00:00 | 04:15:20 | 0 | 19144
2 | 04:15:20 | 07:12:20 | 19145 | 51564
3 | 11:27:40 | 02:49:05 | 51565 | 64244
4 | 14:16:45 | 07:20:10 | 64245 | 97254
5 | 21:36:55 | 10:27:73 | 97255 | 144352
6 | 32:04:53 | 12:23:41 | 144353 | 200118
7 | 44:28:19 | 06:00:24 | 200119 | 227142
8 | 50:28:43 | 06:43:31 | 227143 | 257398
9 | 57:11:74 | 08:19:11 | 257399 | 294834
10 | 65:31:10 | 07:50:65 | 294835 | 330149

AccurateRip Summary (DiscID: 0019bac1-00d45aff-9611320a)
Track 01 : OK (v2, confidence 4/4)
Track 02 : OK (v2, confidence 4/4)
Track 03 : OK (v2, confidence 4/4)
Track 04 : OK (v2, confidence 4/4)
Track 05 : OK (v2, confidence 4/4)
Track 06 : OK (v2, confidence 4/4)
Track 07 : OK (v2, confidence 4/4)
Track 08 : OK (v2, confidence 4/4)
Track 09 : OK (v2, confidence 4/4)
Track 10 : OK (v2, confidence 4/4)
->All tracks accurately ripped.

All Tracks
Album gain : -0.82 dB
Peak : 0.873566
Statistics
Read error : 0
Jitter error (maybe fixed) : 0
Retry sector count : 0
Damaged sector count : 0

Track 01
Filename : /Rip/Compilations - Le violon du siècle - Violin Concertos (2016) [FLAC]/01 Violin Cocerto No. 1 In A minor,BWV 1041 I.flac
Pre-gap length : 00:02:00

Track gain : -1.95 dB
Peak : 0.726135
CRC32 hash (test run) : E5B8DC36
CRC32 hash : E5B8DC36
CRC32 hash (skip zero) : 74BF57CD
AccurateRip v1 signature : E5F94772
AccurateRip v2 signature : FD7134DB
->Accurately ripped (v2, confidence 4/4)
Statistics
Read error : 0
Jitter error (maybe fixed) : 0
Retry sector count : 0
Damaged sector count : 0

Track 02
Filename : /Rip/Compilations - Le violon du siècle - Violin Concertos (2016) [FLAC]/02 Violin Concerto No. 2 In E, BWV 1042 II.flac
Pre-gap length : 00:03:00

Track gain : 4.46 dB
Peak : 0.402679
CRC32 hash (test run) : 1E637BD9
CRC32 hash : 1E637BD9
CRC32 hash (skip zero) : 8B885EAF
AccurateRip v1 signature : DE83C636
AccurateRip v2 signature : 1C041458
->Accurately ripped (v2, confidence 4/4)
Statistics
Read error : 0
Jitter error (maybe fixed) : 0
Retry sector count : 0
Damaged sector count : 0

Track 03
Filename : /Rip/Compilations - Le violon du siècle - Violin Concertos (2016) [FLAC]/03 The Four Seasons: Concerto In G Minor, RV 315 "Summer"/"L'estate" III Presto.flac
Pre-gap length : 00:04:00

Track gain : 1.78 dB
Peak : 0.553406
CRC32 hash (test run) : 695FAD51
CRC32 hash : 695FAD51
CRC32 hash (skip zero) : 09FD1E49
AccurateRip v1 signature : 122CE6DB
AccurateRip v2 signature : 5FC2BF43
->Accurately ripped (v2, confidence 4/4)
Statistics
Read error : 0
Jitter error (maybe fixed) : 0
Retry sector count : 0
Damaged sector count : 0

Track 04
Filename : /Rip/Compilations - Le violon du siècle - Violin Concertos (2016) [FLAC]/04 Violin Concerto No. 22 In A Minor, G97 II. Adagio.flac
Pre-gap length : 00:04:00

Track gain : 4.00 dB
Peak : 0.519379
CRC32 hash (test run) : 539FE3F7
CRC32 hash : 539FE3F7
CRC32 hash (skip zero) : BDD7217C
AccurateRip v1 signature : 88FAB1A4
AccurateRip v2 signature : C3085928
->Accurately ripped (v2, confidence 4/4)
Statistics
Read error : 0
Jitter error (maybe fixed) : 0
Retry sector count : 0
Damaged sector count : 0

Track 05
Filename : /Rip/Compilations - Le violon du siècle - Violin Concertos (2016) [FLAC]/05 Violin Concerto In D, Op.61 III. Rondo: Allegro.flac
Pre-gap length : 00:04:00

Track gain : -2.44 dB
Peak : 0.862213
CRC32 hash (test run) : 8A680636
CRC32 hash : 8A680636
CRC32 hash (skip zero) : 8FD4166B
AccurateRip v1 signature : F0D7744F
AccurateRip v2 signature : 4882FE1D
->Accurately ripped (v2, confidence 4/4)
Statistics
Read error : 0
Jitter error (maybe fixed) : 0
Retry sector count : 0
Damaged sector count : 0

Track 06
Filename : /Rip/Compilations - Le violon du siècle - Violin Concertos (2016) [FLAC]/06 Violin Concerto No. 2 In E Minor, Op.64 I. Allegro Molto Appassionato.flac
Pre-gap length : 00:04:00

Track gain : -1.76 dB
Peak : 0.835205
CRC32 hash (test run) : 195537BB
CRC32 hash : 195537BB
CRC32 hash (skip zero) : CE4BDBD1
AccurateRip v1 signature : 00248674
AccurateRip v2 signature : 3CDAD6C7
->Accurately ripped (v2, confidence 4/4)
Statistics
Read error : 0
Jitter error (maybe fixed) : 0
Retry sector count : 0
Damaged sector count : 0

Track 07
Filename : /Rip/Compilations - Le violon du siècle - Violin Concertos (2016) [FLAC]/07 Violin Concerto No. 1 In D Minor, III. Allegro.flac
Pre-gap length : 00:03:00

Track gain : 0.80 dB
Peak : 0.640503
CRC32 hash (test run) : 19221AC5
CRC32 hash : 19221AC5
CRC32 hash (skip zero) : E7B85D16
AccurateRip v1 signature : DEE0725A
AccurateRip v2 signature : B0370BD1
->Accurately ripped (v2, confidence 4/4)
Statistics
Read error : 0
Jitter error (maybe fixed) : 0
Retry sector count : 0
Damaged sector count : 0

Track 08
Filename : /Rip/Compilations - Le violon du siècle - Violin Concertos (2016) [FLAC]/08 Violin Concerto In D, Op.35 II..flac
Pre-gap length : 00:04:00

Track gain : 6.62 dB
Peak : 0.297974
CRC32 hash (test run) : CC78F263
CRC32 hash : CC78F263
CRC32 hash (skip zero) : 8013872A
AccurateRip v1 signature : 0CD164C4
AccurateRip v2 signature : 11A3139F
->Accurately ripped (v2, confidence 4/4)
Statistics
Read error : 0
Jitter error (maybe fixed) : 0
Retry sector count : 0
Damaged sector count : 0

Track 09
Filename : /Rip/Compilations - Le violon du siècle - Violin Concertos (2016) [FLAC]/09 Violin Concerto In D, Op.77 III..flac
Pre-gap length : 00:04:00

Track gain : -1.00 dB
Peak : 0.873566
CRC32 hash (test run) : C7E1D8F3
CRC32 hash : C7E1D8F3
CRC32 hash (skip zero) : 2D3A7FC0
AccurateRip v1 signature : 1D215B63
AccurateRip v2 signature : 4D97879B
->Accurately ripped (v2, confidence 4/4)
Statistics
Read error : 0
Jitter error (maybe fixed) : 0
Retry sector count : 0
Damaged sector count : 0

Track 10
Filename : /Rip/Compilations - Le violon du siècle - Violin Concertos (2016) [FLAC]/10 Violin Concerto No. 2 In B Minor, Op.7 III. Rondo " La Campanelle".flac
Pre-gap length : 00:04:00

Track gain : -1.63 dB
Peak : 0.762573
CRC32 hash (test run) : F9F28E95
CRC32 hash : F9F28E95
CRC32 hash (skip zero) : 1B33DD70
AccurateRip v1 signature : B0AE909E
AccurateRip v2 signature : 4D682005
->Accurately ripped (v2, confidence 4/4)
Statistics
Read error : 0
Jitter error (maybe fixed) : 0
Retry sector count : 0
Damaged sector count : 0

No errors occurred

End of status report

––-BEGIN XLD SIGNATURE––-
aOqOAo73zvE7eHDR_7GFGjGVV0pgFQ48xKVgGs0PY4FYg26tl_qHg2s35kcBS_vtUDZh8vjFoGNQSWbFhkOo7O7hdobgxtSBuuCYDTa
––-END XLD SIGNATURE––-


CD2 Musique de chambre

01. Beethoven violin sonata no 5 in f major op 24 spri - Yehudi Menuhin
02. Beethoven violin sonata no 5 in f major op 24 spri - Yehudi Menuhin
03. Beethoven violin sonata no 5 in f major op 24 spri - Yehudi Menuhin
04. Beethoven violin sonata no 5 in f major op 24 spri - Yehudi Menuhin
05. Beethoven violin sonata no 9 in a major op 47 kreu - Yehudi Menuhin
06. Brahms violin sonata no 3 in d minor op 108 III un - Yehudi Menuhin
07. Schubert piano trio no 1 in b-flat major d 898 II - Yehudi Menuhin
08. Mozart violin sonata no 35 in a major k 526 II and - Yehudi Menuhin
09. Bach js sonata for violin solo no 3 in c major bwv - Yehudi Menuhin
10. Bach js violin sonata no 3 in e major bwv 1016 III - George Malcolm
11. Franck violin sonata in a major fwv 8 II allegro - Yehudi Menuhin
12. Fauré piano quartet no 1 in c minor op 15 II scher - Yehudi Menuhin
13. Fauré berceuse in d major op 16 - Yehudi Menuhin

X Lossless Decoder version 20161007 (149.3)

XLD extraction logfile from 2017-02-21 10:57:14 +0100

Various Artists / Le Violon Du Siècle

Used drive : MATSHITA CD-RW CW-8123 (revision CA10)
Media type : Pressed CD

Ripper mode : XLD Secure Ripper
Disable audio cache : OK for the drive with a cache less than 1375KiB
Make use of C2 pointers : NO
Read offset correction : 103
Max retry count : 20
Gap status : Analyzed, Appended (except HTOA)

TOC of the extracted CD
Track | Start | Length | Start sector | End sector
––––––––––––––––––––––––––––-
1 | 00:00:00 | 09:59:51 | 0 | 44975
2 | 09:59:51 | 06:33:44 | 44976 | 74494
3 | 16:33:20 | 01:08:13 | 74495 | 79607
4 | 17:41:33 | 06:43:09 | 79608 | 109841
5 | 24:24:42 | 06:49:01 | 109842 | 140517
6 | 31:13:43 | 03:04:59 | 140518 | 154376
7 | 34:18:27 | 09:16:39 | 154377 | 196115
8 | 43:34:66 | 07:05:07 | 196116 | 227997
9 | 50:39:73 | 03:54:07 | 227998 | 245554
10 | 54:34:05 | 05:19:67 | 245555 | 269546
11 | 59:53:72 | 08:08:18 | 269547 | 306164
12 | 68:02:15 | 05:21:70 | 306165 | 330309
13 | 73:24:10 | 03:42:64 | 330310 | 347023

List of alternate offset correction values
# | Absolute | Relative | Confidence
–––––––––––––––––––––
1 | 115 | 12 | 2

AccurateRip Summary (DiscID: 00268d43-017d0d6a-b512120d)
Track 01 : OK (v2, confidence 4/6)
Track 02 : OK (v2, confidence 4/6)
Track 03 : OK (v2, confidence 4/6)
Track 04 : OK (v2, confidence 4/6)
Track 05 : OK (v2, confidence 4/6)
Track 06 : OK (v2, confidence 4/6)
Track 07 : OK (v2, confidence 4/6)
Track 08 : OK (v2, confidence 4/6)
Track 09 : OK (v2, confidence 4/6)
Track 10 : OK (v2, confidence 4/6)
Track 11 : OK (v2, confidence 4/6)
Track 12 : OK (v2, confidence 4/6)
Track 13 : OK (v2, confidence 4/6)
->All tracks accurately ripped.

All Tracks
Album gain : 0.89 dB
Peak : 0.852295
Statistics
Read error : 0
Jitter error (maybe fixed) : 0
Retry sector count : 0
Damaged sector count : 0

Track 01
Filename : /Rip/Compilations - Le Violon Du Siècle (Unknown Year) [FLAC]/01 Sonate N°5 'Le Printemps'.flac
Pre-gap length : 00:02:00

Track gain : -0.95 dB
Peak : 0.813873
CRC32 hash (test run) : EA776C23
CRC32 hash : EA776C23
CRC32 hash (skip zero) : 3E778E7E
AccurateRip v1 signature : CBF727CB
AccurateRip v2 signature : 0776DE40
->Accurately ripped (v2, confidence 4/6)
Statistics
Read error : 0
Jitter error (maybe fixed) : 0
Retry sector count : 0
Damaged sector count : 0

Track 02
Filename : /Rip/Compilations - Le Violon Du Siècle (Unknown Year) [FLAC]/02 Sonate N°5 'Le Printemps'.flac

Track gain : 6.44 dB
Peak : 0.412537
CRC32 hash (test run) : 20F0D2D4
CRC32 hash : 20F0D2D4
CRC32 hash (skip zero) : 25E839C7
AccurateRip v1 signature : 0A63725A
AccurateRip v2 signature : DBF841C5
->Accurately ripped (v2, confidence 4/6)
Statistics
Read error : 0
Jitter error (maybe fixed) : 0
Retry sector count : 0
Damaged sector count : 0

Track 03
Filename : /Rip/Compilations - Le Violon Du Siècle (Unknown Year) [FLAC]/03 Sonate N°5 'Le Printemps'.flac

Track gain : -1.74 dB
Peak : 0.684448
CRC32 hash (test run) : 4B93803E
CRC32 hash : 4B93803E
CRC32 hash (skip zero) : 314E88ED
AccurateRip v1 signature : F6741326
AccurateRip v2 signature : 0DE91914
->Accurately ripped (v2, confidence 4/6)
Statistics
Read error : 0
Jitter error (maybe fixed) : 0
Retry sector count : 0
Damaged sector count : 0

Track 04
Filename : /Rip/Compilations - Le Violon Du Siècle (Unknown Year) [FLAC]/04 Sonate N°5 'Le Printemps'.flac

Track gain : -1.45 dB
Peak : 0.852295
CRC32 hash (test run) : F2DACA87
CRC32 hash : F2DACA87
CRC32 hash (skip zero) : 3AEC54B5
AccurateRip v1 signature : 82AB6D0A
AccurateRip v2 signature : 1D37AE19
->Accurately ripped (v2, confidence 4/6)
Statistics
Read error : 0
Jitter error (maybe fixed) : 0
Retry sector count : 0
Damaged sector count : 0

Track 05
Filename : /Rip/Compilations - Le Violon Du Siècle (Unknown Year) [FLAC]/05 Sonate N°9 'Kreutzer'.flac
Pre-gap length : 00:06:00

Track gain : -0.57 dB
Peak : 0.716705
CRC32 hash (test run) : FFA6FA6C
CRC32 hash : FFA6FA6C
CRC32 hash (skip zero) : 49252AA0
AccurateRip v1 signature : 5B0F0D36
AccurateRip v2 signature : 558C0388
->Accurately ripped (v2, confidence 4/6)
Statistics
Read error : 0
Jitter error (maybe fixed) : 0
Retry sector count : 0
Damaged sector count : 0

Track 06
Filename : /Rip/Compilations - Le Violon Du Siècle (Unknown Year) [FLAC]/06 Sonate N°3.flac
Pre-gap length : 00:06:00

Track gain : 1.68 dB
Peak : 0.426514
CRC32 hash (test run) : DC86971A
CRC32 hash : DC86971A
CRC32 hash (skip zero) : 65619117
AccurateRip v1 signature : 1A52A21D
AccurateRip v2 signature : ED6180FF
->Accurately ripped (v2, confidence 4/6)
Statistics
Read error : 0
Jitter error (maybe fixed) : 0
Retry sector count : 0
Damaged sector count : 0

Track 07
Filename : /Rip/Compilations - Le Violon Du Siècle (Unknown Year) [FLAC]/07 Trio Avec Piano N°1.flac
Pre-gap length : 00:06:00

Track gain : 4.13 dB
Peak : 0.704895
CRC32 hash (test run) : F2798742
CRC32 hash : F2798742
CRC32 hash (skip zero) : 9ADFBB71
AccurateRip v1 signature : 5AC8A503
AccurateRip v2 signature : F0CB9275
->Accurately ripped (v2, confidence 4/6)
Statistics
Read error : 0
Jitter error (maybe fixed) : 0
Retry sector count : 0
Damaged sector count : 0

Track 08
Filename : /Rip/Compilations - Le Violon Du Siècle (Unknown Year) [FLAC]/08 Sonate N°35.flac
Pre-gap length : 00:06:00

Track gain : 3.38 dB
Peak : 0.528168
CRC32 hash (test run) : B6C7193A
CRC32 hash : B6C7193A
CRC32 hash (skip zero) : ABE49718
AccurateRip v1 signature : 7651BD3D
AccurateRip v2 signature : 579753E6
->Accurately ripped (v2, confidence 4/6)
Statistics
Read error : 0
Jitter error (maybe fixed) : 0
Retry sector count : 0
Damaged sector count : 0

Track 09
Filename : /Rip/Compilations - Le Violon Du Siècle (Unknown Year) [FLAC]/09 Sonate BMV 1005.flac
Pre-gap length : 00:07:00

Track gain : 6.06 dB
Peak : 0.287415
CRC32 hash (test run) : 1E55548C
CRC32 hash : 1E55548C
CRC32 hash (skip zero) : 0D0EF47D
AccurateRip v1 signature : A1863DBC
AccurateRip v2 signature : 8EFDD0F5
->Accurately ripped (v2, confidence 4/6)
Statistics
Read error : 0
Jitter error (maybe fixed) : 0
Retry sector count : 0
Damaged sector count : 0

Track 10
Filename : /Rip/Compilations - Le Violon Du Siècle (Unknown Year) [FLAC]/10 Sonate BMV 1016.flac
Pre-gap length : 00:05:00

Track gain : 3.92 dB
Peak : 0.364441
CRC32 hash (test run) : CA3F6629
CRC32 hash : CA3F6629
CRC32 hash (skip zero) : 37334B12
AccurateRip v1 signature : 6322A191
AccurateRip v2 signature : 3A4E34EE
->Accurately ripped (v2, confidence 4/6)
Statistics
Read error : 0
Jitter error (maybe fixed) : 0
Retry sector count : 0
Damaged sector count : 0

Track 11
Filename : /Rip/Compilations - Le Violon Du Siècle (Unknown Year) [FLAC]/11 Sonate.flac
Pre-gap length : 00:07:00

Track gain : 0.74 dB
Peak : 0.518433
CRC32 hash (test run) : 0F65ACB9
CRC32 hash : 0F65ACB9
CRC32 hash (skip zero) : D59DFF7D
AccurateRip v1 signature : F97B9062
AccurateRip v2 signature : 70C9462B
->Accurately ripped (v2, confidence 4/6)
Statistics
Read error : 0
Jitter error (maybe fixed) : 0
Retry sector count : 0
Damaged sector count : 0

Track 12
Filename : /Rip/Compilations - Le Violon Du Siècle (Unknown Year) [FLAC]/12 Quatuor Avec Piano N*1.flac
Pre-gap length : 00:05:00

Track gain : 0.36 dB
Peak : 0.700348
CRC32 hash (test run) : 2B1F8CBC
CRC32 hash : 2B1F8CBC
CRC32 hash (skip zero) : 32BE56FB
AccurateRip v1 signature : 5459DBDC
AccurateRip v2 signature : 3D1191D9
->Accurately ripped (v2, confidence 4/6)
Statistics
Read error : 0
Jitter error (maybe fixed) : 0
Retry sector count : 0
Damaged sector count : 0

Track 13
Filename : /Rip/Compilations - Le Violon Du Siècle (Unknown Year) [FLAC]/13 Berceuse.flac
Pre-gap length : 00:04:00

Track gain : 4.74 dB
Peak : 0.344055
CRC32 hash (test run) : 126C8146
CRC32 hash : 126C8146
CRC32 hash (skip zero) : EF5209D6
AccurateRip v1 signature : 1DB7EA06
AccurateRip v2 signature : 329B83DB
->Accurately ripped (v2, confidence 4/6)
Statistics
Read error : 0
Jitter error (maybe fixed) : 0
Retry sector count : 0
Damaged sector count : 0

No errors occurred

End of status report

––-BEGIN XLD SIGNATURE––-
fUKf3vWaCT_fT32QNNCj1srRXcyZnphQ4pqtGt2R7lYMP0oZpiCXYeQjrL86lgSCKNT5HdNCysfpQSjGSx6oOMcwKTPIzJuj3szNlQW
––-END XLD SIGNATURE––-


CD3 Pépites

01. Brahms arr joachim 21 hungarian dances woo 1 no 5 - Gerald Moore
02. Locatelli arr david l arte del violino op 3 no 13 - Gerald Moore
03. Corelli arr donington violin sonata op 5 no 12 in - George Malcolm
04. Schubert arr menuhin ave maria d 839 - Gerald Moore
05. Dvorak arr kreisler negro spiritual melody from sy - Gerald Moore
06. Dvorak arr kreisler 8 slavonic dances op 72 no 2 I - Gerald Moore
07. Delibes coppelia act 1 no 5 ballade de l epi - Philharmonia Orchestra
08. Delibes sylvia act 3 no 16b pas de deux - Philharmonia Orchestra
09. Debussy arr hartmann preludes book 1 l 117 VIII la - Gerald Moore
10. Kreisler 3 old viennese dances no 2 liebesleid - Gerald Moore
11. Kreisler 3 old viennese dances no 1 liebesfreud - Gerald Moore
12. Kreisler 3 old viennese dances no 3 schon rosmarin - Gerald Moore
13. Rossini andante con variazioni in f major - Yehudi Menuhin
14. Prabhati based on raga gunkali - Ravi Shankar
15. Harris arr harris viva vivaldi - Stephane Grappelli
16. Harris arr harris air on a shoestring - Stephane Grappelli

X Lossless Decoder version 20161007 (149.3)

XLD extraction logfile from 2017-02-21 14:02:43 +0100

Yehudi Menuhin / Le Violon Du Siècle

Used drive : MATSHITA CD-RW CW-8123 (revision CA10)
Media type : Pressed CD

Ripper mode : XLD Secure Ripper
Disable audio cache : OK for the drive with a cache less than 1375KiB
Make use of C2 pointers : NO
Read offset correction : 103
Max retry count : 20
Gap status : Analyzed, Appended (except HTOA)

TOC of the extracted CD
Track | Start | Length | Start sector | End sector
––––––––––––––––––––––––––––-
1 | 00:00:00 | 02:06:54 | 0 | 9503
2 | 02:06:54 | 03:06:14 | 9504 | 23467
3 | 05:12:68 | 13:13:69 | 23468 | 83011
4 | 18:26:62 | 04:49:74 | 83012 | 104760
5 | 23:16:61 | 03:48:68 | 104761 | 121928
6 | 27:05:54 | 04:03:53 | 121929 | 140206
7 | 31:09:32 | 02:39:56 | 140207 | 152187
8 | 33:49:13 | 04:39:55 | 152188 | 173167
9 | 38:28:68 | 02:39:41 | 173168 | 185133
10 | 41:08:34 | 03:37:57 | 185134 | 201465
11 | 44:46:16 | 03:14:09 | 201466 | 216024
12 | 48:00:25 | 01:58:42 | 216025 | 224916
13 | 49:58:67 | 04:14:59 | 224917 | 244025
14 | 54:13:51 | 04:10:61 | 244026 | 262836
15 | 58:24:37 | 02:25:70 | 262837 | 273781
16 | 60:50:32 | 03:40:25 | 273782 | 290306

List of alternate offset correction values
# | Absolute | Relative | Confidence
–––––––––––––––––––––
1 | 115 | 12 | 2

AccurateRip Summary (DiscID: 00294d2b-01e39762-ca0f1e10)
Track 01 : OK (v2, confidence 4/6)
Track 02 : OK (v2, confidence 4/6)
Track 03 : OK (v2, confidence 4/6)
Track 04 : OK (v2, confidence 4/6)
Track 05 : OK (v2, confidence 4/6)
Track 06 : OK (v2, confidence 4/6)
Track 07 : OK (v2, confidence 4/6)
Track 08 : OK (v2, confidence 4/6)
Track 09 : OK (v2, confidence 4/6)
Track 10 : OK (v2, confidence 4/6)
Track 11 : OK (v2, confidence 4/6)
Track 12 : OK (v2, confidence 4/6)
Track 13 : OK (v2, confidence 4/6)
Track 14 : OK (v2, confidence 4/6)
Track 15 : OK (v2, confidence 4/6)
Track 16 : OK (v2, confidence 4/6)
->All tracks accurately ripped.

All Tracks
Album gain : -0.31 dB
Peak : 0.780579
Statistics
Read error : 0
Jitter error (maybe fixed) : 0
Retry sector count : 0
Damaged sector count : 0

Track 01
Filename : /Rip/Yehudi Menuhin - Le Violon Du Siècle (2016) [FLAC]/01 Brahms Danse Hongroise N° 5.flac
Pre-gap length : 00:02:00

Track gain : -1.93 dB
Peak : 0.632782
CRC32 hash (test run) : AEC8020F
CRC32 hash : AEC8020F
CRC32 hash (skip zero) : 7C471ECC
AccurateRip v1 signature : 15A97F4D
AccurateRip v2 signature : 4A19FE48
->Accurately ripped (v2, confidence 4/6)
Statistics
Read error : 0
Jitter error (maybe fixed) : 0
Retry sector count : 0
Damaged sector count : 0

Track 02
Filename : /Rip/Yehudi Menuhin - Le Violon Du Siècle (2016) [FLAC]/02 Locatelli Caprice N° 23.flac
Pre-gap length : 00:03:00

Track gain : -0.82 dB
Peak : 0.646759
CRC32 hash (test run) : 0AB629B5
CRC32 hash : 0AB629B5
CRC32 hash (skip zero) : 5CFF3CC6
AccurateRip v1 signature : B42FF1E8
AccurateRip v2 signature : 0FACDF2C
->Accurately ripped (v2, confidence 4/6)
Statistics
Read error : 0
Jitter error (maybe fixed) : 0
Retry sector count : 0
Damaged sector count : 0

Track 03
Filename : /Rip/Yehudi Menuhin - Le Violon Du Siècle (2016) [FLAC]/03 Corelli Sonate N° 12.flac
Pre-gap length : 00:03:00

Track gain : -0.67 dB
Peak : 0.710815
CRC32 hash (test run) : 02BD142A
CRC32 hash : 02BD142A
CRC32 hash (skip zero) : E5404B31
AccurateRip v1 signature : 6EC351F8
AccurateRip v2 signature : 97EEA80E
->Accurately ripped (v2, confidence 4/6)
Statistics
Read error : 0
Jitter error (maybe fixed) : 0
Retry sector count : 0
Damaged sector count : 0

Track 04
Filename : /Rip/Yehudi Menuhin - Le Violon Du Siècle (2016) [FLAC]/04 Schubert Ave Maria.flac
Pre-gap length : 00:03:00

Track gain : -1.08 dB
Peak : 0.528137
CRC32 hash (test run) : 3FEF7B65
CRC32 hash : 3FEF7B65
CRC32 hash (skip zero) : CB798AE7
AccurateRip v1 signature : 1AF16F2E
AccurateRip v2 signature : 2191EA9C
->Accurately ripped (v2, confidence 4/6)
Statistics
Read error : 0
Jitter error (maybe fixed) : 0
Retry sector count : 0
Damaged sector count : 0

Track 05
Filename : /Rip/Yehudi Menuhin - Le Violon Du Siècle (2016) [FLAC]/05 Dvorak Goin'home.flac
Pre-gap length : 00:03:00

Track gain : -1.48 dB
Peak : 0.649719
CRC32 hash (test run) : 166BE2BE
CRC32 hash : 166BE2BE
CRC32 hash (skip zero) : F6A000E7
AccurateRip v1 signature : ACB1FB86
AccurateRip v2 signature : 12D03190
->Accurately ripped (v2, confidence 4/6)
Statistics
Read error : 0
Jitter error (maybe fixed) : 0
Retry sector count : 0
Damaged sector count : 0

Track 06
Filename : /Rip/Yehudi Menuhin - Le Violon Du Siècle (2016) [FLAC]/06 Dvorak Danse Slave.flac
Pre-gap length : 00:03:00

Track gain : -0.81 dB
Peak : 0.501953
CRC32 hash (test run) : 6E2DB2E5
CRC32 hash : 6E2DB2E5
CRC32 hash (skip zero) : 5D8F453C
AccurateRip v1 signature : C350A681
AccurateRip v2 signature : C0E8CAE3
->Accurately ripped (v2, confidence 4/6)
Statistics
Read error : 0
Jitter error (maybe fixed) : 0
Retry sector count : 0
Damaged sector count : 0

Track 07
Filename : /Rip/Yehudi Menuhin - Le Violon Du Siècle (2016) [FLAC]/07 Delibes Coppélia Ballade De l'Epi.flac
Pre-gap length : 00:04:00

Track gain : 2.16 dB
Peak : 0.472443
CRC32 hash (test run) : 7802CC19
CRC32 hash : 7802CC19
CRC32 hash (skip zero) : 96898064
AccurateRip v1 signature : BDF34122
AccurateRip v2 signature : 47C33EEA
->Accurately ripped (v2, confidence 4/6)
Statistics
Read error : 0
Jitter error (maybe fixed) : 0
Retry sector count : 0
Damaged sector count : 0

Track 08
Filename : /Rip/Yehudi Menuhin - Le Violon Du Siècle (2016) [FLAC]/08 Delibes Sylvia Pase De Deux.flac
Pre-gap length : 00:03:56

Track gain : -0.25 dB
Peak : 0.711945
CRC32 hash (test run) : F1B9B7A9
CRC32 hash : F1B9B7A9
CRC32 hash (skip zero) : DB03F4C3
AccurateRip v1 signature : BE69740A
AccurateRip v2 signature : A426332C
->Accurately ripped (v2, confidence 4/6)
Statistics
Read error : 0
Jitter error (maybe fixed) : 0
Retry sector count : 0
Damaged sector count : 0

Track 09
Filename : /Rip/Yehudi Menuhin - Le Violon Du Siècle (2016) [FLAC]/09 Debussy La Fille Aux Cheveux De Lin.flac
Pre-gap length : 00:04:00

Track gain : 3.73 dB
Peak : 0.570587
CRC32 hash (test run) : 25620807
CRC32 hash : 25620807
CRC32 hash (skip zero) : 20CF633C
AccurateRip v1 signature : B26AD16A
AccurateRip v2 signature : E8FE3CC3
->Accurately ripped (v2, confidence 4/6)
Statistics
Read error : 0
Jitter error (maybe fixed) : 0
Retry sector count : 0
Damaged sector count : 0

Track 10
Filename : /Rip/Yehudi Menuhin - Le Violon Du Siècle (2016) [FLAC]/10 Fritz Kreisler Trois Vieux Airs De Danse Viennois.flac
Pre-gap length : 00:03:00

Track gain : 3.08 dB
Peak : 0.438354
CRC32 hash (test run) : 929CBB38
CRC32 hash : 929CBB38
CRC32 hash (skip zero) : 24555A11
AccurateRip v1 signature : 8727E67E
AccurateRip v2 signature : F5FA436E
->Accurately ripped (v2, confidence 4/6)
Statistics
Read error : 0
Jitter error (maybe fixed) : 0
Retry sector count : 0
Damaged sector count : 0

Track 11
Filename : /Rip/Yehudi Menuhin - Le Violon Du Siècle (2016) [FLAC]/11 Fritz Kreisler Trois Vieux Airs De Danse Viennois.flac
Pre-gap length : 00:03:00

Track gain : 0.90 dB
Peak : 0.601349
CRC32 hash (test run) : 45639847
CRC32 hash : 45639847
CRC32 hash (skip zero) : 4C50952D
AccurateRip v1 signature : A9E8B0C3
AccurateRip v2 signature : CB7CAF83
->Accurately ripped (v2, confidence 4/6)
Statistics
Read error : 0
Jitter error (maybe fixed) : 0
Retry sector count : 0
Damaged sector count : 0

Track 12
Filename : /Rip/Yehudi Menuhin - Le Violon Du Siècle (2016) [FLAC]/12 Frtitz Kreisler Trois Vieux Airs De Danse Viennois.flac
Pre-gap length : 00:03:00

Track gain : 1.57 dB
Peak : 0.519470
CRC32 hash (test run) : B895B78F
CRC32 hash : B895B78F
CRC32 hash (skip zero) : F794F52A
AccurateRip v1 signature : 58AA81B3
AccurateRip v2 signature : 24D25029
->Accurately ripped (v2, confidence 4/6)
Statistics
Read error : 0
Jitter error (maybe fixed) : 0
Retry sector count : 0
Damaged sector count : 0

Track 13
Filename : /Rip/Yehudi Menuhin - Le Violon Du Siècle (2016) [FLAC]/13 Rossini Andante Con Variazioni.flac
Pre-gap length : 00:05:00

Track gain : 0.44 dB
Peak : 0.780579
CRC32 hash (test run) : B6BAE615
CRC32 hash : B6BAE615
CRC32 hash (skip zero) : AB484C4E
AccurateRip v1 signature : AF130EC1
AccurateRip v2 signature : 54078513
->Accurately ripped (v2, confidence 4/6)
Statistics
Read error : 0
Jitter error (maybe fixed) : 0
Retry sector count : 0
Damaged sector count : 0

Track 14
Filename : /Rip/Yehudi Menuhin - Le Violon Du Siècle (2016) [FLAC]/14 Shankar Prabhati.flac
Pre-gap length : 00:05:00

Track gain : -0.02 dB
Peak : 0.548798
CRC32 hash (test run) : 25435F07
CRC32 hash : 25435F07
CRC32 hash (skip zero) : F92F5AF9
AccurateRip v1 signature : 05DC604C
AccurateRip v2 signature : BF3205FC
->Accurately ripped (v2, confidence 4/6)
Statistics
Read error : 0
Jitter error (maybe fixed) : 0
Retry sector count : 0
Damaged sector count : 0

Track 15
Filename : /Rip/Yehudi Menuhin - Le Violon Du Siècle (2016) [FLAC]/15 Harris Viva Vivaldi.flac
Pre-gap length : 00:04:00

Track gain : 0.12 dB
Peak : 0.751190
CRC32 hash (test run) : AE388A5B
CRC32 hash : AE388A5B
CRC32 hash (skip zero) : 87927632
AccurateRip v1 signature : 9DD39042
AccurateRip v2 signature : 9C94AC5B
->Accurately ripped (v2, confidence 4/6)
Statistics
Read error : 0
Jitter error (maybe fixed) : 0
Retry sector count : 0
Damaged sector count : 0

Track 16
Filename : /Rip/Yehudi Menuhin - Le Violon Du Siècle (2016) [FLAC]/16 Harris Air On A Shoestring.flac
Pre-gap length : 00:02:25

Track gain : 0.85 dB
Peak : 0.765656
CRC32 hash (test run) : 1B47E45A
CRC32 hash : 1B47E45A
CRC32 hash (skip zero) : A394E6D3
AccurateRip v1 signature : 8541BBFC
AccurateRip v2 signature : 6CBB291E
->Accurately ripped (v2, confidence 4/6)
Statistics
Read error : 0
Jitter error (maybe fixed) : 0
Retry sector count : 0
Damaged sector count : 0

No errors occurred

End of status report

––-BEGIN XLD SIGNATURE––-
Z8K9A6kmR5RNBGnPsiRhLWZBZCFUkwKWOApDy.ic4p0sCfzTjnr9O5px31fI7ZcUFabbta5K6PwWE2FABQ0JGWk5.PXYIWfn404mJ6W
––-END XLD SIGNATURE––-


All thanks go to the original releaser