Tags
Language
Tags

Yehudi Menuhin & Stephane Grappelli - Menuhin & Grappelli Play Gershwin (1988)

Posted By: gribovar
Yehudi Menuhin & Stephane Grappelli - Menuhin & Grappelli Play Gershwin (1988)

Yehudi Menuhin & Stephane Grappelli - Menuhin & Grappelli Play Gershwin (1988)
EAC Rip | FLAC (tracks+.cue+log) - 299 MB | Covers - 27 MB
Genre: Jazz, Swing, Classical | RAR 3% Rec. | Label: EMI (CDM 7 69218 2)

Yehudi Menuhin was a dazzling virtuoso from childhood who became a key humanitarian in addition to being a celebrated concert artist.
The legendary violinist Yehudi Menuhin was the eldest child of Russian-born Hebrew scholars who met in Palestine, emigrated to New York City, and moved to San Francisco soon after their son's birth. After just three years of violin study, Yehudi made a legendary debut at age seven with the local symphony. His Carnegie Hall debut three years later, in the Beethoven Violin Concerto, garnered praise that likened him to Mozart as a prodigy, whereupon the family (which now included sisters Hephzibah and Yaltah) lived gypsy-like in hotels wherever Yehudi was engaged at enormous fees. But the child's talent was instinctive. As Fritz Kreisler was to remark later on, "Because the young Menuhin had anticipated so early and so much of what nature had given him, I foresaw that he would have great difficulties." And he did.

One of the all-time great jazz violinists (ranking with Joe Venuti and Stuff Smith as one of the big three of pre-bop), Stéphane Grappelli's longevity and consistently enthusiastic playing did a great deal to establish the violin as a jazz instrument. He was originally self-taught as both a violinist and a pianist, although during 1924-28 he studied at the Paris Conservatoire. Grappelli played in movie theaters and dance bands before meeting guitarist Django Reinhardt in 1933. They hit it off musically from the start even though their lifestyles (Grappelli was sophisticated while Django was a gypsy) were very different. Together as Quintet of the Hot Club of France (comprised of violin, three acoustic guitars and bass) during 1933-39 they produced a sensational series of recordings and performances.
Tracklist:
01. Fascinating Rhythm
02. Soon
03. Summertime
04. Nice Work If You Can Get It
05. Embraceable You
06. Liza
07. A Foggy Day
08. 'S Wonderful
09. The Man I Love
10. I Got Rhythm
11. He Loves And She Loves
12. They Can't Take That Away
13. They All Laughed
14. Funny Face
15. Love Is Here To Stay
16. Lady Be Good

Total time: 55:57

Exact Audio Copy V1.3 from 2. September 2016

EAC extraction logfile from 10. May 2020, 10:11

Yehudi Menuhin & Stephane Grappelli / Menuhin & Grappelli Play Gershwin

Used drive : TS8XDVDSTRANSCEND Adapter: 1 ID: 1

Read mode : Secure
Utilize accurate stream : Yes
Defeat audio cache : Yes
Make use of C2 pointers : No

Read offset correction : 6
Overread into Lead-In and Lead-Out : No
Fill up missing offset samples with silence : Yes
Delete leading and trailing silent blocks : No
Null samples used in CRC calculations : Yes
Used interface : Native Win32 interface for Win NT & 2000
Gap handling : Appended to previous track

Used output format : User Defined Encoder
Selected bitrate : 1024 kBit/s
Quality : High
Add ID3 tag : No
Command line compressor : C:\Program Files (x86)\Exact Audio Copy\FLAC\FLAC.EXE
Additional command line options : -V -8 -T "ARTIST=%artist%" -T "TITLE=%title%" -T "ALBUM=%albumtitle%" -T "DATE=%year%" -T "TRACKNUMBER=%tracknr%" -T "GENRE=%genre%" %source%


TOC of the extracted CD

Track | Start | Length | Start sector | End sector
––––––––––––––––––––––––––––-
1 | 0:00.33 | 2:20.00 | 33 | 10532
2 | 2:20.33 | 3:49.00 | 10533 | 27707
3 | 6:09.33 | 4:24.67 | 27708 | 47574
4 | 10:34.25 | 2:31.63 | 47575 | 58962
5 | 13:06.13 | 3:12.17 | 58963 | 73379
6 | 16:18.30 | 3:40.63 | 73380 | 89942
7 | 19:59.18 | 3:47.10 | 89943 | 106977
8 | 23:46.28 | 2:45.10 | 106978 | 119362
9 | 26:31.38 | 4:44.62 | 119363 | 140724
10 | 31:16.25 | 2:59.18 | 140725 | 154167
11 | 34:15.43 | 2:54.55 | 154168 | 167272
12 | 37:10.23 | 4:49.22 | 167273 | 188969
13 | 41:59.45 | 2:59.40 | 188970 | 202434
14 | 44:59.10 | 3:22.25 | 202435 | 217609
15 | 48:21.35 | 3:59.20 | 217610 | 235554
16 | 52:20.55 | 3:36.63 | 235555 | 251817


Track 1

Filename D:\Music\Musicgate's rips\Yehudi Menuhin & Stephane Grappelli - Menuhin & Grappelli Play Gershwin - 1988 (EMI) [FLAC]\01. Fascinating rhythm.wav

Pre-gap length 0:00:02.33

Peak level 90.4 %
Extraction speed 1.0 X
Track quality 100.0 %
Test CRC 21940551
Copy CRC 21940551
Accurately ripped (confidence 31) [F4B4805E] (AR v2)
Copy OK

Track 2

Filename D:\Music\Musicgate's rips\Yehudi Menuhin & Stephane Grappelli - Menuhin & Grappelli Play Gershwin - 1988 (EMI) [FLAC]\02. Soon.wav

Pre-gap length 0:00:02.05

Peak level 95.3 %
Extraction speed 1.2 X
Track quality 100.0 %
Test CRC 9281547E
Copy CRC 9281547E
Accurately ripped (confidence 31) [720CC970] (AR v2)
Copy OK

Track 3

Filename D:\Music\Musicgate's rips\Yehudi Menuhin & Stephane Grappelli - Menuhin & Grappelli Play Gershwin - 1988 (EMI) [FLAC]\03. Summertime.wav

Pre-gap length 0:00:02.08

Peak level 78.2 %
Extraction speed 1.3 X
Track quality 100.0 %
Test CRC B47A0635
Copy CRC B47A0635
Accurately ripped (confidence 31) [70DF51E3] (AR v2)
Copy OK

Track 4

Filename D:\Music\Musicgate's rips\Yehudi Menuhin & Stephane Grappelli - Menuhin & Grappelli Play Gershwin - 1988 (EMI) [FLAC]\04. Nice work if you can get it.wav

Pre-gap length 0:00:02.17

Peak level 97.2 %
Extraction speed 1.3 X
Track quality 100.0 %
Test CRC CD8B7B6D
Copy CRC CD8B7B6D
Accurately ripped (confidence 31) [1C0C917D] (AR v2)
Copy OK

Track 5

Filename D:\Music\Musicgate's rips\Yehudi Menuhin & Stephane Grappelli - Menuhin & Grappelli Play Gershwin - 1988 (EMI) [FLAC]\05. Embraceable you.wav

Pre-gap length 0:00:01.53

Peak level 94.1 %
Extraction speed 1.2 X
Track quality 99.9 %
Test CRC 7BE18FE8
Copy CRC 7BE18FE8
Accurately ripped (confidence 31) [C074858F] (AR v2)
Copy OK

Track 6

Filename D:\Music\Musicgate's rips\Yehudi Menuhin & Stephane Grappelli - Menuhin & Grappelli Play Gershwin - 1988 (EMI) [FLAC]\06. Liza.wav

Pre-gap length 0:00:02.10

Peak level 97.7 %
Extraction speed 1.5 X
Track quality 100.0 %
Test CRC DC0E4D84
Copy CRC DC0E4D84
Accurately ripped (confidence 31) [9E22E8FD] (AR v2)
Copy OK

Track 7

Filename D:\Music\Musicgate's rips\Yehudi Menuhin & Stephane Grappelli - Menuhin & Grappelli Play Gershwin - 1988 (EMI) [FLAC]\07. A foggy day.wav

Pre-gap length 0:00:01.70

Peak level 83.0 %
Extraction speed 1.6 X
Track quality 100.0 %
Test CRC 836D6D4D
Copy CRC 836D6D4D
Accurately ripped (confidence 31) [4FC7F92F] (AR v2)
Copy OK

Track 8

Filename D:\Music\Musicgate's rips\Yehudi Menuhin & Stephane Grappelli - Menuhin & Grappelli Play Gershwin - 1988 (EMI) [FLAC]\08. S'Wonderful.wav

Pre-gap length 0:00:01.48

Peak level 97.6 %
Extraction speed 1.6 X
Track quality 100.0 %
Test CRC CC64DB49
Copy CRC CC64DB49
Accurately ripped (confidence 31) [C48C27B9] (AR v2)
Copy OK

Track 9

Filename D:\Music\Musicgate's rips\Yehudi Menuhin & Stephane Grappelli - Menuhin & Grappelli Play Gershwin - 1988 (EMI) [FLAC]\09. The man I love.wav

Pre-gap length 0:00:01.05

Peak level 79.9 %
Extraction speed 1.7 X
Track quality 99.9 %
Test CRC E1A01912
Copy CRC E1A01912
Accurately ripped (confidence 31) [3547E15D] (AR v2)
Copy OK

Track 10

Filename D:\Music\Musicgate's rips\Yehudi Menuhin & Stephane Grappelli - Menuhin & Grappelli Play Gershwin - 1988 (EMI) [FLAC]\10. I got rhythm.wav

Pre-gap length 0:00:02.07

Peak level 88.0 %
Extraction speed 1.8 X
Track quality 100.0 %
Test CRC 83540D75
Copy CRC 83540D75
Accurately ripped (confidence 31) [6B7BB37A] (AR v2)
Copy OK

Track 11

Filename D:\Music\Musicgate's rips\Yehudi Menuhin & Stephane Grappelli - Menuhin & Grappelli Play Gershwin - 1988 (EMI) [FLAC]\11. He loves and she loves.wav

Pre-gap length 0:00:01.55

Peak level 93.8 %
Extraction speed 1.8 X
Track quality 100.0 %
Test CRC 5B3D4340
Copy CRC 5B3D4340
Accurately ripped (confidence 31) [70C349DC] (AR v2)
Copy OK

Track 12

Filename D:\Music\Musicgate's rips\Yehudi Menuhin & Stephane Grappelli - Menuhin & Grappelli Play Gershwin - 1988 (EMI) [FLAC]\12. They can't take that away from me.wav

Pre-gap length 0:00:01.58

Peak level 73.9 %
Extraction speed 2.1 X
Track quality 100.0 %
Test CRC 219130C0
Copy CRC 219130C0
Accurately ripped (confidence 31) [65E1FD59] (AR v2)
Copy OK

Track 13

Filename D:\Music\Musicgate's rips\Yehudi Menuhin & Stephane Grappelli - Menuhin & Grappelli Play Gershwin - 1988 (EMI) [FLAC]\13. They all laughed.wav

Pre-gap length 0:00:02.05

Peak level 72.9 %
Extraction speed 2.0 X
Track quality 100.0 %
Test CRC 3D350C80
Copy CRC 3D350C80
Accurately ripped (confidence 31) [0CECB285] (AR v2)
Copy OK

Track 14

Filename D:\Music\Musicgate's rips\Yehudi Menuhin & Stephane Grappelli - Menuhin & Grappelli Play Gershwin - 1988 (EMI) [FLAC]\14. Funny face.wav

Pre-gap length 0:00:01.30

Peak level 75.3 %
Extraction speed 2.1 X
Track quality 100.0 %
Test CRC 24E5C0E7
Copy CRC 24E5C0E7
Accurately ripped (confidence 31) [52499147] (AR v2)
Copy OK

Track 15

Filename D:\Music\Musicgate's rips\Yehudi Menuhin & Stephane Grappelli - Menuhin & Grappelli Play Gershwin - 1988 (EMI) [FLAC]\15. Love is here to stay.wav

Pre-gap length 0:00:01.52

Peak level 70.1 %
Extraction speed 2.2 X
Track quality 100.0 %
Test CRC AFFB4C10
Copy CRC AFFB4C10
Accurately ripped (confidence 31) [2B1BCCB3] (AR v2)
Copy OK

Track 16

Filename D:\Music\Musicgate's rips\Yehudi Menuhin & Stephane Grappelli - Menuhin & Grappelli Play Gershwin - 1988 (EMI) [FLAC]\16. Lady be good.wav

Pre-gap length 0:00:01.57

Peak level 69.5 %
Extraction speed 2.2 X
Track quality 100.0 %
Test CRC E39DC335
Copy CRC E39DC335
Accurately ripped (confidence 30) [10D200AB] (AR v2)
Copy OK


All tracks accurately ripped

No errors occurred

End of status report

–– CUETools DB Plugin V2.1.6

[CTDB TOCID: WWGkodIuTXbs6wPYOaif9WiMvWc-] found
Submit result: unrecognized or virtual drive
Track | CTDB Status
1 | (49/53) Accurately ripped
2 | (49/53) Accurately ripped
3 | (49/53) Accurately ripped
4 | (48/53) Accurately ripped
5 | (48/53) Accurately ripped
6 | (48/53) Accurately ripped
7 | (49/53) Accurately ripped
8 | (49/53) Accurately ripped
9 | (49/53) Accurately ripped
10 | (49/53) Accurately ripped
11 | (49/53) Accurately ripped
12 | (49/53) Accurately ripped
13 | (48/53) Accurately ripped
14 | (48/53) Accurately ripped
15 | (49/53) Accurately ripped
16 | (48/53) Accurately ripped


==== Log checksum ABDC2318E99E4D6C6C24F0ED8ABF7D028D2F822BAA293B2CC48AD89B92F7AD8C ====

[CUETools log; Date: 24.06.2020 20:32:08; Version: 2.1.4]
Pregap length 00:00:33.
[CTDB TOCID: WWGkodIuTXbs6wPYOaif9WiMvWc-] found.
Track | CTDB Status
1 | (49/53) Accurately ripped
2 | (49/53) Accurately ripped
3 | (49/53) Accurately ripped
4 | (48/53) Accurately ripped
5 | (48/53) Accurately ripped
6 | (48/53) Accurately ripped
7 | (49/53) Accurately ripped
8 | (49/53) Accurately ripped
9 | (49/53) Accurately ripped
10 | (49/53) Accurately ripped
11 | (49/53) Accurately ripped
12 | (49/53) Accurately ripped
13 | (48/53) Accurately ripped
14 | (48/53) Accurately ripped
15 | (49/53) Accurately ripped
16 | (48/53) Accurately ripped
[AccurateRip ID: 001fefe6-01821d00-cb0d1d10] found.
Track [ CRC | V2 ] Status
01 [864c1d74|f4b4805e] (11+32/43) Accurately ripped
02 [c94f1ea4|720cc970] (11+32/43) Accurately ripped
03 [d6fe6496|70df51e3] (11+32/43) Accurately ripped
04 [8e594641|1c0c917d] (11+32/43) Accurately ripped
05 [40d9b7c1|c074858f] (11+32/43) Accurately ripped
06 [9358ce28|9e22e8fd] (11+32/43) Accurately ripped
07 [87032cc9|4fc7f92f] (11+32/43) Accurately ripped
08 [9b0d7a74|c48c27b9] (11+32/43) Accurately ripped
09 [30c49e22|3547e15d] (11+32/43) Accurately ripped
10 [c99f412f|6b7bb37a] (10+32/42) Accurately ripped
11 [8669de51|70c349dc] (11+32/43) Accurately ripped
12 [fff3ffdc|65e1fd59] (11+32/43) Accurately ripped
13 [cfe3088e|0cecb285] (11+32/43) Accurately ripped
14 [aa9db5aa|52499147] (10+32/42) Accurately ripped
15 [71185efd|2b1bccb3] (11+32/43) Accurately ripped
16 [19f3dfa8|10d200ab] (11+31/42) Accurately ripped

Track Peak [ CRC32 ] [W/O NULL] [ LOG ]
– 97,7 [56EF4BEA] [06B4BC5D]
01 90,4 [21940551] [66A1E61E] CRC32
02 95,3 [9281547E] [7D175E90] CRC32
03 78,2 [B47A0635] [3655F09E] CRC32
04 97,2 [CD8B7B6D] [120787C1] CRC32
05 94,1 [7BE18FE8] [E819C7E2] CRC32
06 97,7 [DC0E4D84] [BFABDE83] CRC32
07 83,0 [836D6D4D] [A7344AB6] CRC32
08 97,6 [CC64DB49] [2EFB695B] CRC32
09 79,9 [E1A01912] [CF02F8FC] CRC32
10 88,0 [83540D75] [DAF66AC4] CRC32
11 93,8 [5B3D4340] [91D7329B] CRC32
12 73,9 [219130C0] [F80E61B9] CRC32
13 72,9 [3D350C80] [39B2CB4C] CRC32
14 75,3 [24E5C0E7] [28C1AB3D] CRC32
15 70,1 [AFFB4C10] [D79E3FFF] CRC32
16 69,5 [E39DC335] [2D3C25EB] CRC32

Thanks to Musicgate

See also: