Subcategories

Yello - Zebra (1994) {With Bonus Tracks}

Posted By: popsakov
Yello - Zebra (1994) {With Bonus Tracks}

Yello - Zebra (1994) {With Bonus Tracks}
EAC Rip | FLAC (Img) + Cue + Log ~ 548 Mb | MP3 CBR320 ~ 204 Mb
Full Scans | 01:19:49 | RAR 5% Recovery
Electronic, Synth-Pop | CD-Maximum #CDM 0601-617

The quirky synthesized noises of Swiss duo Yello have been dance club staples since the early '80s. Early recordings such as Solid Pleasure and You Gotta Say Yes to Another Excess were experimental but tuneful synth-pop experiments, combining Dieter Meier's bizarre vocals and Boris Blank's gurgling synthesizer effects to create distinctive, strange, yet compelling dancefloor anthems like "Bostich" and "I Love You." By the mid-'80s, Yello began to incorporate Latin rhythms into its sound, finding a larger U.S. audience along the way; the immortal "Oh Yeah," by far the duo's most recognizable song after being featured in Ferris Bueller's Day Off, The Secret of My Success, and countless commercials, even crossed over to the U.S. pop chart in 1987. By the 1990s, Yello was still churning out a number of albums; though the experimental synth effects had long become passé and Yello was becoming more mainstream, Blank and Meier continued to find success throughout the world, even though U.S. success was limited to the dancefloor. 1993's Zebra found Yello continuing with its signature sound of combining Latin rhythms, Meier's distinctive vocal approach, and contemporary dancefloor tastes. Yello began to incorporate house music into its sound; the energetic single "Do It" exemplifies this approach. Yello's sense of humor is still intact on Zebra, especially on the faux-Latin-jazz tune "How How." "Tremendous Pain" and "Move Dance Be Born" are also effective dancefloor fillers. Zebra is a pleasant listen and it proves Yello has been able to incorporate contemporary dance music trends into its sound.

~ William Cooper, All Music

***************

Yello - Zebra (1994) {With Bonus Tracks}

Yello - Zebra (1994) {With Bonus Tracks}

Track List:

01. Suite 909 [6:12]
02. How How [2:39]
03. Night Train [3:30]
04. I… I'm In Love [3:04]
05. S.A.X. [3:28]
06. Fat Cry [3:13]
07. Tremendous Pain [4:09]
08. Do It [3:58]
09. Move Dance Be Born [5:57]
10. The Premix (How How) [5:55]
11. Poom Shanka [3:23]
12. Suite 904 (Single Version) [4:06]
13. How How (Single Version) [2:39]
14. How How (Fluke Radio Edit) [3:21]
15. How How (The Premix by Yello) [5:55]
16. How How (In Silence Mix) [4:33]
17. Suite 904 [6:37]
18. Suite 904 (Steve Mac's Extended Mix) [7:10]

Exact Audio Copy V1.3 from 2. September 2016

EAC extraction logfile from 18. July 2019, 16:39

Yello / Zebra

Used drive : TSSTcorpCDDVDW SH-224GB Adapter: 1 ID: 0

Read mode : Secure
Utilize accurate stream : Yes
Defeat audio cache : Yes
Make use of C2 pointers : No

Read offset correction : 6
Overread into Lead-In and Lead-Out : No
Fill up missing offset samples with silence : Yes
Delete leading and trailing silent blocks : No
Null samples used in CRC calculations : Yes
Used interface : Native Win32 interface for Win NT & 2000

Used output format : User Defined Encoder
Selected bitrate : 128 kBit/s
Quality : High
Add ID3 tag : No
Command line compressor : C:\Program Files (x86)\Exact Audio Copy\FLAC\FLAC.EXE
Additional command line options : -V -8 -T "Date=%year%" -T "Genre=%genre%" %source%


TOC of the extracted CD

Track | Start | Length | Start sector | End sector
––––––––––––––––––––––––––––-
1 | 0:00.00 | 6:12.06 | 0 | 27905
2 | 6:12.06 | 2:39.16 | 27906 | 39846
3 | 8:51.22 | 3:29.62 | 39847 | 55583
4 | 12:21.09 | 3:04.14 | 55584 | 69397
5 | 15:25.23 | 3:28.32 | 69398 | 85029
6 | 18:53.55 | 3:12.58 | 85030 | 99487
7 | 22:06.38 | 4:08.73 | 99488 | 118160
8 | 26:15.36 | 3:58.31 | 118161 | 136041
9 | 30:13.67 | 5:57.16 | 136042 | 162832
10 | 36:11.08 | 5:54.50 | 162833 | 189432
11 | 42:05.58 | 3:23.08 | 189433 | 204665
12 | 45:28.66 | 4:05.74 | 204666 | 223114
13 | 49:34.65 | 2:38.62 | 223115 | 235026
14 | 52:13.52 | 3:21.03 | 235027 | 250104
15 | 55:34.55 | 5:54.43 | 250105 | 276697
16 | 61:29.23 | 4:32.51 | 276698 | 297148
17 | 66:01.74 | 6:37.00 | 297149 | 326923
18 | 72:38.74 | 7:09.40 | 326924 | 359138


Range status and errors

Selected range

Filename F:\rwa12\Yello - Zebra.wav

Peak level 100.0 %
Extraction speed 3.4 X
Range quality 99.9 %
Test CRC B91B9854
Copy CRC B91B9854
Copy OK

No errors occurred


AccurateRip summary

Track 1 cannot be verified as accurate (confidence 6) [F11B6268], AccurateRip returned [1A5794D3] (AR v2)
Track 2 accurately ripped (confidence 4) [ECDD8BEF] (AR v2)
Track 3 accurately ripped (confidence 4) [BCFE9E06] (AR v2)
Track 4 accurately ripped (confidence 4) [3EEEFF78] (AR v2)
Track 5 accurately ripped (confidence 4) [1A000FF1] (AR v2)
Track 6 accurately ripped (confidence 4) [D1AA8952] (AR v2)
Track 7 accurately ripped (confidence 4) [042E08CA] (AR v2)
Track 8 accurately ripped (confidence 4) [C9602644] (AR v2)
Track 9 accurately ripped (confidence 4) [1B5E74C5] (AR v2)
Track 10 accurately ripped (confidence 4) [7A705208] (AR v2)
Track 11 accurately ripped (confidence 4) [B72AA1B7] (AR v2)
Track 12 accurately ripped (confidence 4) [954843C5] (AR v2)
Track 13 accurately ripped (confidence 4) [3438E59A] (AR v2)
Track 14 accurately ripped (confidence 4) [3472986F] (AR v2)
Track 15 accurately ripped (confidence 4) [7D86B73A] (AR v2)
Track 16 accurately ripped (confidence 4) [16DE830B] (AR v2)
Track 17 accurately ripped (confidence 4) [E7584BB4] (AR v2)
Track 18 accurately ripped (confidence 3) [C7410BB2] (AR v2)

17 трек(и) скопированы точно
1 трек(и) не удалось проверить на точность

Some tracks could not be verified as accurate

End of status report

–– CUETools DB Plugin V2.1.6

[CTDB TOCID: IHoty0ve0dhUg3_sFCtElSbPshg-] found
Submit result: IHoty0ve0dhUg3_sFCtElSbPshg- has been submitted
Track | CTDB Status
1 | (5/9) Differs in 26 samples @00:03:50,00:42:55-00:42:56, or (1/9) differs in 26 samples @00:03:50,00:42:55-00:42:56
2 | (8/9) Accurately ripped
3 | (8/9) Accurately ripped
4 | (8/9) Accurately ripped
5 | (7/9) Accurately ripped, or (1/9) differs in 59 samples @00:24:37-00:24:38
6 | (8/9) Accurately ripped
7 | (8/9) Accurately ripped
8 | (8/9) Accurately ripped
9 | (8/9) Accurately ripped
10 | (7/9) Accurately ripped, or (1/9) differs in 180 samples @01:12:17-01:12:18,01:13:10-01:13:11
11 | (8/9) Accurately ripped
12 | (8/9) Accurately ripped
13 | (8/9) Accurately ripped
14 | (8/9) Accurately ripped
15 | (8/9) Accurately ripped
16 | (8/9) Accurately ripped
17 | (7/9) Accurately ripped
18 | (7/9) Accurately ripped
If you are sure that your rip contains errors, you can use CUETools to repair it.


==== Log checksum 853DF61DD9DD1FD39A81C8124E3E964D1878A87A3614D5674134B0399F188D8E ====

[CUETools log; Date: 24.07.2019 11:11:45; Version: 2.1.6]
[CTDB TOCID: IHoty0ve0dhUg3_sFCtElSbPshg-] found.
Track | CTDB Status
1 | ( 1/10) Accurately ripped, or (5/10) differs in 26 samples @00:03:50,00:42:55-00:42:56, or (1/10) differs in 26 samples @00:03:50,00:42:55-00:42:56
2 | ( 9/10) Accurately ripped
3 | ( 9/10) Accurately ripped
4 | ( 9/10) Accurately ripped
5 | ( 8/10) Accurately ripped, or (1/10) differs in 59 samples @00:24:37-00:24:38
6 | ( 9/10) Accurately ripped
7 | ( 9/10) Accurately ripped
8 | ( 9/10) Accurately ripped
9 | ( 9/10) Accurately ripped
10 | ( 8/10) Accurately ripped, or (1/10) differs in 180 samples @01:12:17-01:12:18,01:13:10-01:13:11
11 | ( 9/10) Accurately ripped
12 | ( 9/10) Accurately ripped
13 | ( 9/10) Accurately ripped
14 | ( 9/10) Accurately ripped
15 | ( 9/10) Accurately ripped
16 | ( 9/10) Accurately ripped
17 | ( 8/10) Accurately ripped
18 | ( 8/10) Accurately ripped
[AccurateRip ID: 00302a41-02874111-0812b412] found.
Track [ CRC | V2 ] Status
01 [70f166a3|f11b6268] (00+00/08) No match
02 [28c87979|ecdd8bef] (09+04/13) Accurately ripped
03 [65123b11|bcfe9e06] (09+04/13) Accurately ripped
04 [d1564f66|3eeeff78] (09+04/13) Accurately ripped
05 [d44d8445|1a000ff1] (09+04/13) Accurately ripped
06 [74b3d6f5|d1aa8952] (09+04/13) Accurately ripped
07 [eae20332|042e08ca] (09+04/13) Accurately ripped
08 [d5bc6936|c9602644] (09+04/13) Accurately ripped
09 [c3bea0fa|1b5e74c5] (09+04/13) Accurately ripped
10 [b0ca8582|7a705208] (09+04/13) Accurately ripped
11 [a7bac19a|b72aa1b7] (09+04/13) Accurately ripped
12 [452d1a47|954843c5] (09+04/13) Accurately ripped
13 [1c8d1098|3438e59a] (09+04/13) Accurately ripped
14 [94587e29|3472986f] (09+04/13) Accurately ripped
15 [bbdccc2a|7d86b73a] (09+04/13) Accurately ripped
16 [2cf60391|16de830b] (09+04/13) Accurately ripped
17 [5ff4c962|e7584bb4] (09+04/13) Accurately ripped
18 [37759445|c7410bb2] (08+03/11) Accurately ripped

Track Peak [ CRC32 ] [W/O NULL] [ LOG ]
– 100,0 [B91B9854] [F76C8D45] CRC32
01 99,1 [9E183616] [33F2E416]
02 99,1 [26532884] [72EC1DF5]
03 99,1 [CB24E5E6] [5785FEB3]
04 99,1 [FF9C6654] [70C8B241]
05 99,1 [075CB3A4] [8906A3BE]
06 99,1 [5D1EFB8F] [52751FAF]
07 99,1 [E531FD64] [34E53C22]
08 99,2 [04D3A8FB] [945E0395]
09 99,1 [AD61B531] [B4F37A09]
10 99,1 [2856A9E1] [E77F29F0]
11 99,1 [03780F51] [62813AEE]
12 98,8 [BCEC3BEB] [DDE5C7D9]
13 99,2 [381005EE] [1C889EEA]
14 100,0 [9F67E866] [D77644CE]
15 99,2 [7B9A9F4F] [8052CB5F]
16 100,0 [F4C1E487] [87F11E91]
17 98,8 [7174BDA8] [E895D550]
18 98,4 [E90D5CA1] [F9C674CA]

Yello - Zebra (1994) {With Bonus Tracks}

See also:
Yello - Essential (1992) {2010, Reissue}

All thanks go to rwa12

>>> My Blog <<<

Download from icerbox.com: