Subcategories

Yellowjackets - Mint Jam (2002) [2CD's]

Posted By: tiburon
Yellowjackets - Mint Jam (2002) [2CD's]

Yellowjackets - Mint Jam (2002) [2CD's]
EAC 1.0b3 | FLAC tracks level 8 | Cue+Log+M3U | Full Scans 600dpi | 606MB + 5% Recovery
MP3 CBR 320 Kbps | 230MB + 5% Recovery
Genre: Fusion, Post-Bop
Yellowjackets - Mint Jam (2002) [2CD's]

Yellowjackets' self released CD "Mint Jam" is a Live Recording, double CD containing eight new original Yellowjackets compositions, and updated arrangements of the Yellowjacket classics: "Run Fer Your Life," "Evening News," "Tortoise and the Hare," and "Statue of Liberty." Recorded live at "The Mint" in Los Angeles, Yellowjackets members feel this recording has captured the essence of a live Yellowjackets concert. Mint Jam was a 2003 Grammy Nominee for "Best Contemporary Jazz Album".
Track List

CD1
01. Les Is Mo 4:58
02. Boomtown 5:35
03. Motet 9:30
04. Mofongo 7:17
05. Blues for KJ 5:25
06. Runferyerlife 7:32

CD2
07. Song For Carla 5:36
08. Tortoise and the Hare 7:26
09. Mosaic 6:28
10. New Jig 7:14
11. Statue Of Liberty 9:48
12. Evening News 6:53

musicians
Bob Mintzer - tenor saxophone, EWI
Russell Ferrante - acoustic piano, synthesizer
Jimmy Haslip - electric bass
Marcus Baylor - drums

Recorded live at the Mint, LA, July 24th and 25th, 2001

Produced by Yellowjackets


Exact Audio Copy V1.0 beta 3 from 29. August 2011

EAC extraction logfile from 26. December 2012, 18:50

Yellowjackets / Mint Jam

Used drive : HL-DT-STDVD-RAM GSA-H55N Adapter: 0 ID: 2

Read mode : Secure
Utilize accurate stream : Yes
Defeat audio cache : Yes
Make use of C2 pointers : No

Read offset correction : 102
Overread into Lead-In and Lead-Out : Yes
Fill up missing offset samples with silence : Yes
Delete leading and trailing silent blocks : No
Null samples used in CRC calculations : Yes
Used interface : Native Win32 interface for Win NT & 2000
Gap handling : Appended to previous track

Used output format : User Defined Encoder
Selected bitrate : 128 kBit/s
Quality : High
Add ID3 tag : No
Command line compressor : G:\Program Files\Exact Audio Copy\Encoder\flac.exe
Additional command line options : -V -8 -T "Genre=%genre%" -T "Artist=%artist%" -T "Title=%title%" -T "Album=%albumtitle%" -T "Date=%year%" -T "Tracknumber=%tracknr%" -T "Comment=EAC1.0b3 FLAC -8" %source%


TOC of the extracted CD

Track | Start | Length | Start sector | End sector
––––––––––––––––––––––––––––-
1 | 0:00.00 | 4:58.05 | 0 | 22354
2 | 4:58.05 | 5:34.72 | 22355 | 47476
3 | 10:33.02 | 9:29.70 | 47477 | 90221
4 | 20:02.72 | 7:17.15 | 90222 | 123011
5 | 27:20.12 | 5:24.38 | 123012 | 147349
6 | 32:44.50 | 7:32.35 | 147350 | 181284


Track 1

Filename F:\WAV\01 - Les Is Mo.wav

Pre-gap length 0:00:02.00

Peak level 98.8 %
Extraction speed 4.5 X
Track quality 100.0 %
Test CRC 3C923BFA
Copy CRC 3C923BFA
Accurately ripped (confidence 9) [4061C066] (AR v1)
Copy OK

Track 2

Filename F:\WAV\02 - Boomtown.wav

Peak level 98.8 %
Extraction speed 4.7 X
Track quality 99.9 %
Test CRC 335A3A8F
Copy CRC 335A3A8F
Accurately ripped (confidence 9) [057C5C09] (AR v1)
Copy OK

Track 3

Filename F:\WAV\03 - Motet.wav

Peak level 98.8 %
Extraction speed 6.1 X
Track quality 100.0 %
Test CRC BCAE13D4
Copy CRC BCAE13D4
Accurately ripped (confidence 9) [8D63F4FB] (AR v1)
Copy OK

Track 4

Filename F:\WAV\04 - Mofongo.wav

Peak level 98.8 %
Extraction speed 6.7 X
Track quality 100.0 %
Test CRC A7186D4C
Copy CRC A7186D4C
Accurately ripped (confidence 8) [9F260DFB] (AR v1)
Copy OK

Track 5

Filename F:\WAV\05 - Blues for KJ.wav

Peak level 98.8 %
Extraction speed 7.0 X
Track quality 100.0 %
Test CRC 9D4AF4B5
Copy CRC 9D4AF4B5
Accurately ripped (confidence 9) [CD761C56] (AR v1)
Copy OK

Track 6

Filename F:\WAV\06 - Runferyerlife.wav

Peak level 98.8 %
Extraction speed 5.0 X
Track quality 99.9 %
Test CRC F7552371
Copy CRC F7552371
Accurately ripped (confidence 9) [0BC11E26] (AR v1)
Copy OK


All tracks accurately ripped

No errors occurred

End of status report

==== Log checksum A27385A2DBD3358786BF2CEA97D91B183EEE8D348F8EB664DF84C7BAFAB57954 ====

––––––––––––––––––––––––––––––

Exact Audio Copy V1.0 beta 3 from 29. August 2011

EAC extraction logfile from 26. December 2012, 19:14

Yellowjackets / Mint Jam

Used drive : HL-DT-STDVD-RAM GSA-H55N Adapter: 0 ID: 2

Read mode : Secure
Utilize accurate stream : Yes
Defeat audio cache : Yes
Make use of C2 pointers : No

Read offset correction : 102
Overread into Lead-In and Lead-Out : Yes
Fill up missing offset samples with silence : Yes
Delete leading and trailing silent blocks : No
Null samples used in CRC calculations : Yes
Used interface : Native Win32 interface for Win NT & 2000
Gap handling : Appended to previous track

Used output format : User Defined Encoder
Selected bitrate : 128 kBit/s
Quality : High
Add ID3 tag : No
Command line compressor : G:\Program Files\Exact Audio Copy\Encoder\flac.exe
Additional command line options : -V -8 -T "Genre=%genre%" -T "Artist=%artist%" -T "Title=%title%" -T "Album=%albumtitle%" -T "Date=%year%" -T "Tracknumber=%tracknr%" -T "Comment=EAC1.0b3 FLAC -8" %source%


TOC of the extracted CD

Track | Start | Length | Start sector | End sector
––––––––––––––––––––––––––––-
1 | 0:00.00 | 5:36.32 | 0 | 25231
2 | 5:36.32 | 7:25.53 | 25232 | 58659
3 | 13:02.10 | 6:27.67 | 58660 | 87751
4 | 19:30.02 | 7:14.08 | 87752 | 120309
5 | 26:44.10 | 9:48.05 | 120310 | 164414
6 | 36:32.15 | 6:53.07 | 164415 | 195396


Track 1

Filename F:\WAV\07 - Song For Carla.wav

Pre-gap length 0:00:02.00

Peak level 98.8 %
Extraction speed 4.6 X
Track quality 100.0 %
Test CRC 4306E8AE
Copy CRC 4306E8AE
Accurately ripped (confidence 9) [DE67646C] (AR v1)
Copy OK

Track 2

Filename F:\WAV\08 - Tortoise and the Hare.wav

Peak level 98.8 %
Extraction speed 5.4 X
Track quality 100.0 %
Test CRC DA86D368
Copy CRC DA86D368
Accurately ripped (confidence 9) [A330A696] (AR v1)
Copy OK

Track 3

Filename F:\WAV\09 - Mosaic.wav

Peak level 98.8 %
Extraction speed 6.0 X
Track quality 100.0 %
Test CRC C7FCA5BF
Copy CRC C7FCA5BF
Accurately ripped (confidence 9) [5127CC60] (AR v1)
Copy OK

Track 4

Filename F:\WAV\10 - New Jig.wav

Peak level 98.8 %
Extraction speed 6.6 X
Track quality 100.0 %
Test CRC 2D3CD22E
Copy CRC 2D3CD22E
Accurately ripped (confidence 9) [0B614869] (AR v1)
Copy OK

Track 5

Filename F:\WAV\11 - Statue of Liberty.wav

Peak level 98.8 %
Extraction speed 7.3 X
Track quality 100.0 %
Test CRC EB942DDD
Copy CRC EB942DDD
Accurately ripped (confidence 9) [715B4CC5] (AR v1)
Copy OK

Track 6

Filename F:\WAV\12 - Evening News.wav

Peak level 98.8 %
Extraction speed 3.2 X
Track quality 100.0 %
Test CRC 35F853B5
Copy CRC 35F853B5
Accurately ripped (confidence 9) [46C45A58] (AR v1)
Copy OK


All tracks accurately ripped

No errors occurred

End of status report

==== Log checksum E7DF614BBA1A96202E081F36C16CF19B9EEB23331F106B8A77722107530FE6C5 ====


––––––––––––––––––––––––––––––––––––––––
Analyzed: Yellowjackets / Mint Jam
––––––––––––––––––––––––––––––––––––––––

DR Peak RMS Duration Track
––––––––––––––––––––––––––––––––––––––––
DR10 -0.10 dB -12.35 dB 4:58 01-Les Is Mo
DR10 -0.10 dB -12.09 dB 5:35 02-Boomtown
DR10 -0.10 dB -12.95 dB 9:30 03-Motet
DR10 -0.10 dB -12.01 dB 7:17 04-Mofongo
DR10 -0.10 dB -13.63 dB 5:25 05-Blues for KJ
DR9 -0.10 dB -13.05 dB 7:32 06-Runferyerlife
DR9 -0.10 dB -12.45 dB 5:36 07-Song For Carla
DR9 -0.10 dB -12.73 dB 7:26 08-Tortoise and the Hare
DR9 -0.10 dB -11.18 dB 6:28 09-Mosaic
DR10 -0.10 dB -13.21 dB 7:14 10-New Jig
DR10 -0.10 dB -13.56 dB 9:48 11-Statue of Liberty
DR9 -0.10 dB -11.08 dB 6:53 12-Evening News
––––––––––––––––––––––––––––––––––––––––

Number of tracks: 12
Official DR value: DR10

Samplerate: 44100 Hz
Channels: 2
Bits per sample: 16
Bitrate: 957 kbps
Codec: FLAC
================================================================================

Yellowjackets - Mint Jam (2002) [2CD's]
Yellowjackets - Mint Jam (2002) [2CD's]
Yellowjackets - Mint Jam (2002) [2CD's]
Yellowjackets - Mint Jam (2002) [2CD's]


Thanks to the original ripper