Subcategories
Tags
Language
Tags

Yes - Big Generator (1987) {Japan 1st Press}

Posted By: popsakov
Yes - Big Generator (1987) {Japan 1st Press}

Yes - Big Generator (1987) {Japan 1st Press}
EAC Rip | FLAC (Img) + Cue + Log ~ 311 Mb | MP3 CBR320 ~ 141 Mb
Full Scans | 00:43:38 | RAR 5% Recovery
ATCO Records / Warner-Pioneer Corporation #32XD-559
Art Rock / Progressive Rock / Pop Rock

Big Generator is the twelfth studio album by the English rock band Yes, released on 21 September 1987 by Atco Records. After touring worldwide in support of their previous album, 90125 (1983), which saw the band move from progressive rock towards a pop-oriented and commercially accessible direction, Yes started work on a follow-up in 1985 with producer Trevor Horn. It was a laborious album to make; recording began at Carimate, Italy, but internal and creative differences resulted in production to resume in London, where Horn ended his time with the band due to continuing problems. The album was completed in Los Angeles in 1987 by Rabin and producer Paul DeVilliers.

Big Generator received some mixed reviews from music critics, and the album reached number 15 on the Billboard 200 and number 17 on the UK Albums Chart. Like 90125, it was nominated for a Grammy Award for Best Rock Performance by a Duo or Group with Vocal. The album spawned three singles, "Love Will Find a Way", "Rhythm of Love", and "Final Eyes". Yes supported Big Generator with a tour of North America and Japan from November 1987 to April 1988, after which Anderson left the group.

***************

Yes - Big Generator (1987) {Japan 1st Press}

Yes - Big Generator (1987) {Japan 1st Press}

Track List:

01. Rhythm Of Love [0:04:48.37]
02. Big Generator [0:04:34.00]
03. Shoot High Aim Low [0:07:03.00]
04. Almost Like Love [0:04:58.00]
05. Love Will Find A Way [0:04:50.00]
06. Final Eyes [0:06:26.00]
07. I'm Running [0:07:37.50]
08. Holy Lamb (Song For Harmonic Convergence) [0:03:20.33]

Personnel:
Jon Anderson - vocals
Trevor Rabin - vocals, acoustic and electric guitars, keyboards, string arrangements
Tony Kaye - Hammond organ, piano
Chris Squire - bass guitar, backing vocals
Alan White - drums, percussion, backing vocals

Additional musicians:
Soul Lips-James Zavala - horns on «Almost Like Love»
Lee R. Thornburg - horns on «Almost Like Love»
Nick Lane - horns on «Almost Like Love»
Greg Smith - horns on «Almost Like Love»
Jimmy Zavala - harmonica on «Love Will Find a Way»

Exact Audio Copy V1.3 from 2. September 2016

EAC extraction logfile from 4. October 2019, 16:37

Yes / Big Generator [32XD-559]

Used drive : HL-DT-STBD-RE BH10LS38 Adapter: 1 ID: 0

Read mode : Secure
Utilize accurate stream : Yes
Defeat audio cache : Yes
Make use of C2 pointers : No

Read offset correction : 667
Overread into Lead-In and Lead-Out : No
Fill up missing offset samples with silence : Yes
Delete leading and trailing silent blocks : No
Null samples used in CRC calculations : Yes
Used interface : Native Win32 interface for Win NT & 2000

Used output format : User Defined Encoder
Selected bitrate : 128 kBit/s
Quality : High
Add ID3 tag : No
Command line compressor : C:\Program Files (x86)\Exact Audio Copy\Flac\flac.exe
Additional command line options : -V -8 -T "Date=%year%" -T "Genre=%genre%" %source%


TOC of the extracted CD

Track | Start | Length | Start sector | End sector
––––––––––––––––––––––––––––-
1 | 0:00.00 | 4:48.37 | 0 | 21636
2 | 4:48.37 | 4:34.00 | 21637 | 42186
3 | 9:22.37 | 7:03.00 | 42187 | 73911
4 | 16:25.37 | 4:58.00 | 73912 | 96261
5 | 21:23.37 | 4:50.00 | 96262 | 118011
6 | 26:13.37 | 6:26.00 | 118012 | 146961
7 | 32:39.37 | 7:37.50 | 146962 | 181286
8 | 40:17.12 | 3:20.33 | 181287 | 196319


Range status and errors

Selected range

Filename D:\Rips by Alder\Yes - Big Generator [32XD-559].wav

Peak level 100.0 %
Extraction speed 7.5 X
Range quality 100.0 %
Test CRC 00CA4684
Copy CRC 00CA4684
Copy OK

No errors occurred


AccurateRip summary

Track 1 accurately ripped (confidence 8) [09C7497B] (AR v2)
Track 2 accurately ripped (confidence 8) [C02D5D3E] (AR v2)
Track 3 accurately ripped (confidence 8) [351FBF5F] (AR v2)
Track 4 accurately ripped (confidence 8) [63BD1851] (AR v2)
Track 5 accurately ripped (confidence 8) [D4792411] (AR v2)
Track 6 accurately ripped (confidence 7) [463267E6] (AR v2)
Track 7 accurately ripped (confidence 8) [A723EDBC] (AR v2)
Track 8 accurately ripped (confidence 8) [0D561FFD] (AR v2)

All tracks accurately ripped

End of status report

–– CUETools DB Plugin V2.1.6

[CTDB TOCID: LyN1wudI.WAb.7sidBYOklwTN28-] found
Submit result: LyN1wudI.WAb.7sidBYOklwTN28- has been confirmed
Track | CTDB Status
1 | (35/36) Accurately ripped
2 | (36/36) Accurately ripped
3 | (36/36) Accurately ripped
4 | (36/36) Accurately ripped
5 | (36/36) Accurately ripped
6 | (35/36) Accurately ripped
7 | (36/36) Accurately ripped
8 | (36/36) Accurately ripped


==== Log checksum 15B30DFF38C04223E16FEA8FBE4C7B372369F6A518AEF39EB4E56C7008DB6786 ====

foobar2000 1.4 / Dynamic Range Meter 1.1.1
log date: 2019-10-08 18:27:57

––––––––––––––––––––––––––––––––––––––––
Analyzed: Yes / Big Generator [32XD-559]
––––––––––––––––––––––––––––––––––––––––

DR Peak RMS Duration Track
––––––––––––––––––––––––––––––––––––––––
DR15 -0.05 dB -17.28 dB 4:48 01-Rhythm Of Love
DR14 -0.41 dB -17.02 dB 4:34 02-Big Generator
DR16 0.00 dB -18.18 dB 7:03 03-Shoot High Aim Low
DR14 -0.86 dB -17.04 dB 4:58 04-Almost Like Love
DR14 -0.36 dB -15.70 dB 4:50 05-Love Will Find A Way
DR13 -0.43 dB -16.44 dB 6:26 06-Final Eyes
DR13 -0.23 dB -16.72 dB 7:38 07-I'm Running
DR15 -0.21 dB -19.42 dB 3:20 08-Holy Lamb (Song For Harmonic Convergence)
––––––––––––––––––––––––––––––––––––––––

Number of tracks: 8
Official DR value: DR14

Samplerate: 44100 Hz
Channels: 2
Bits per sample: 16
Bitrate: 839 kbps
Codec: FLAC
================================================================================

[CUETools log; Date: 08.10.2019 18:28:29; Version: 2.1.6]
[CTDB TOCID: LyN1wudI.WAb.7sidBYOklwTN28-] found.
Track | CTDB Status
1 | (36/37) Accurately ripped
2 | (37/37) Accurately ripped
3 | (37/37) Accurately ripped
4 | (37/37) Accurately ripped
5 | (37/37) Accurately ripped
6 | (36/37) Accurately ripped
7 | (37/37) Accurately ripped
8 | (37/37) Accurately ripped
[AccurateRip ID: 000d6023-005a09e8-770a3908] found.
Track [ CRC | V2 ] Status
01 [2ea8c05b|09c7497b] (03+08/11) Accurately ripped
02 [d789e131|c02d5d3e] (03+08/11) Accurately ripped
03 [853e6c41|351fbf5f] (03+08/11) Accurately ripped
04 [4866eeba|63bd1851] (03+08/11) Accurately ripped
05 [fc130ad6|d4792411] (03+08/11) Accurately ripped
06 [dcefcc99|463267e6] (03+07/10) Accurately ripped
07 [2e05764b|a723edbc] (03+08/11) Accurately ripped
08 [a992271c|0d561ffd] (03+08/11) Accurately ripped

Track Peak [ CRC32 ] [W/O NULL] [ LOG ]
– 100,0 [00CA4684] [E7C8EE2F] CRC32
01 99,4 [31991355] [4311BA49]
02 95,3 [32F8A761] [55FE0B9A]
03 100,0 [7EB2015E] [D886315E]
04 90,5 [9268D9DD] [BEFADAF7]
05 95,9 [079A5CC7] [04A007A0]
06 95,1 [39B39659] [4536A023]
07 97,4 [26AD6FE5] [1EEF886C]
08 97,6 [3888D301] [76229437]

Yes - Big Generator (1987) {Japan 1st Press}


All thanks go to Alder

>>> Yes in my Blog <<<

DOWNLOAD: