Subcategories

Yo-Yo Ma - Solo: O'connor, Sheng, Wilde, Tcherepnin, Kodaly (1999) (Repost)

Posted By: tirexiss
Yo-Yo Ma - Solo: O'connor, Sheng, Wilde, Tcherepnin, Kodaly (1999) (Repost)

Yo-Yo Ma - Solo: O'connor, Sheng, Wilde, Tcherepnin, Kodaly (1999)
EAC | FLAC (image+.cue, log) | Covers Included | 64:40 | 254 MB
Genre: Classical | Label: Sony Classical | Catalog: SK 61739

Bach showed that the cello can dance, but composers from Rossini to Shostakovich have favored it as an instrument of pensive reflection and brooding melancholy. The playful cover photo notwithstanding, SOLO features Yo-Yo Ma in five 20th century cello works of a serious nature, all with folk influence and all echoing at least a bit of the troubles of the times in which they were written.
Mark O'Connor's wistful 'Appalachia Waltz' is the most relaxed piece, sounding like a back porch meditation on an overcast day. Bright Sheng's 'Seven Tunes Heard in China' is much edgier and abrasive in the Bartók manner, while David Wilde's 'The Cellist of Sarajevo' is an outpouring of unmitigated grief in arch form; lament unfolding into rage and then retreating into silence. Alexander Tcherepnin's Suite is an odd hybrid, a product of the Russian-born, widely traveled composer's interest in Chinese culture. Lastly, there is the masterful Sonata of Zoltán Kodály, a real heir to the Bach Suites in that it presents a self-contained world while stretching the cello to its limits.

Yo-Yo Ma - Solo: O'connor, Sheng, Wilde, Tcherepnin, Kodaly (1999) (Repost)

Track List:

Mark O' Connor
1. Appalachia Waltz

Bright Sheng
2. Seven Tunes Heard in China 1
3. Seven Tunes Heard in China 2
4. Seven Tunes Heard in China 3
5. Seven Tunes Heard in China 4
6. Seven Tunes Heard in China 5
7. Seven Tunes Heard in China 6
8. Seven Tunes Heard in China 7

David Wilde
9. The Cellist of Sarajevo

Alexander Tcherepnin
10. Suite for Solo Cello 1
11. Suite for Solo Cello 2
12. Suite for Solo Cello 3
13. Suite for Solo Cello 4

Zoltan Kodaly
14-16. Sonata for Solo Cello, Op. 8

Performers:
Yo-Yo Ma, cello

Exact Audio Copy V0.99 prebeta 5 from 4. May 2009

EAC extraction logfile from 2. April 2010, 0:03

Yo-Yo Ma / Solo

Used drive : HL-DT-STDVDRAM GSA-4082B Adapter: 1 ID: 1

Read mode : Secure
Utilize accurate stream : Yes
Defeat audio cache : Yes
Make use of C2 pointers : No

Read offset correction : 667
Overread into Lead-In and Lead-Out : No
Fill up missing offset samples with silence : Yes
Delete leading and trailing silent blocks : No
Null samples used in CRC calculations : Yes
Used interface : Native Win32 interface for Win NT & 2000

Used output format : Internal WAV Routines
Sample format : 44.100 Hz; 16 Bit; Stereo


TOC of the extracted CD

Track | Start | Length | Start sector | End sector
––––––––––––––––––––––––––––-
1 | 0:00.00 | 4:25.07 | 0 | 19881
2 | 4:25.07 | 1:30.23 | 19882 | 26654
3 | 5:55.30 | 0:58.55 | 26655 | 31059
4 | 6:54.10 | 2:00.27 | 31060 | 40086
5 | 8:54.37 | 4:25.03 | 40087 | 59964
6 | 13:19.40 | 2:11.60 | 59965 | 69849
7 | 15:31.25 | 4:34.45 | 69850 | 90444
8 | 20:05.70 | 3:24.65 | 90445 | 105809
9 | 23:30.60 | 7:00.02 | 105810 | 137311
10 | 30:30.62 | 1:40.35 | 137312 | 144846
11 | 32:11.22 | 1:25.15 | 144847 | 151236
12 | 33:36.37 | 1:56.55 | 151237 | 159991
13 | 35:33.17 | 1:35.10 | 159992 | 167126
14 | 37:08.27 | 8:00.60 | 167127 | 203186
15 | 45:09.12 | 9:59.38 | 203187 | 248149
16 | 55:08.50 | 9:30.67 | 248150 | 290966


Range status and errors

Selected range

Filename D:\Music\Classics\Yo-Yo Ma - Solo.wav

Peak level 93.3 %
Range quality 100.0 %
Copy CRC 1E8CD781
Copy OK

No errors occurred

[CUETools log; Date: 27.07.2017 20:54:44; Version: 2.1.5]
[CTDB TOCID: TyVSMVxPPUmaqitjemFj0sN_lWM-] found.
Track | CTDB Status
1 | (90/90) Accurately ripped
2 | (90/90) Accurately ripped
3 | (90/90) Accurately ripped
4 | (90/90) Accurately ripped
5 | (90/90) Accurately ripped
6 | (90/90) Accurately ripped
7 | (90/90) Accurately ripped
8 | (90/90) Accurately ripped
9 | (89/90) Accurately ripped
10 | (89/90) Accurately ripped
11 | (90/90) Accurately ripped
12 | (90/90) Accurately ripped
13 | (90/90) Accurately ripped
14 | (89/90) Accurately ripped
15 | (84/90) Accurately ripped, or (4/90) differs in 881 samples @09:49:67-09:49:68,09:57:01-09:57:02
16 | (84/90) Accurately ripped, or (4/90) differs in 245 samples @00:02:59-00:02:60
[AccurateRip ID: 001db3cd-017043c2-b00f2710] found.
Track [ CRC | V2 ] Status
01 [265ddd12|5a203e00] (37+43/86) Accurately ripped
02 [1370c6da|80120931] (38+44/88) Accurately ripped
03 [5a09be53|94970e65] (37+44/87) Accurately ripped
04 [f2f037d1|7cd388af] (39+43/88) Accurately ripped
05 [3ba9a090|345013dc] (39+42/85) Accurately ripped
06 [dad25ba6|6c016867] (38+43/87) Accurately ripped
07 [25e662d6|3061654d] (39+44/89) Accurately ripped
08 [798c9954|44348f08] (39+44/89) Accurately ripped
09 [68b0afc3|8b7e2ebe] (38+45/89) Accurately ripped
10 [2e3ef7cd|798addd3] (38+44/88) Accurately ripped
11 [dc111fa9|cb5c3d8a] (38+44/88) Accurately ripped
12 [8341de80|66434d50] (38+44/88) Accurately ripped
13 [a32097d3|a8c79300] (38+44/88) Accurately ripped
14 [2559aa46|10cb6fba] (38+44/88) Accurately ripped
15 [c47fc910|8c69e171] (38+43/87) Accurately ripped
16 [ef6f3e73|c1e2f3f4] (38+43/87) Accurately ripped
Offsetted by 5:
01 [8c178bd0] (02/86) Accurately ripped
02 [30897921] (02/88) Accurately ripped
03 [809a2c6d] (02/87) Accurately ripped
04 [f7eb7bb5] (02/88) Accurately ripped
05 [dda7cd93] (02/85) Accurately ripped
06 [cff3d6fb] (02/87) Accurately ripped
07 [6249cb39] (02/89) Accurately ripped
08 [a9e863a5] (02/89) Accurately ripped
09 [c4b19739] (02/89) Accurately ripped
10 [3c5872ee] (02/88) Accurately ripped
11 [bdfb23aa] (02/88) Accurately ripped
12 [adfc1347] (02/88) Accurately ripped
13 [b242382a] (02/88) Accurately ripped
14 [8ffb6d20] (02/88) Accurately ripped
15 [df27fbe3] (00/87) No match (V2 was not tested)
16 [12a706ff] (00/87) No match (V2 was not tested)
Offsetted by 103:
01 [e83814ac] (02/86) Accurately ripped
02 [250f8082] (02/88) Accurately ripped
03 [f7377d90] (02/87) Accurately ripped
04 [10b5567b] (02/88) Accurately ripped
05 [5f9be008] (00/85) No match (V2 was not tested)
06 [65569e6c] (02/87) Accurately ripped
07 [efd61793] (02/89) Accurately ripped
08 [55310edb] (02/89) Accurately ripped
09 [d06757da] (02/89) Accurately ripped
10 [5399881d] (02/88) Accurately ripped
11 [f11c7696] (02/88) Accurately ripped
12 [d2aeb8f2] (02/88) Accurately ripped
13 [1959df4f] (02/88) Accurately ripped
14 [75bd53fa] (02/88) Accurately ripped
15 [114ab0b5] (02/87) Accurately ripped
16 [dc265a67] (00/87) No match (V2 was not tested)

Track Peak [ CRC32 ] [W/O NULL] [ LOG ]
– 93,3 [1E8CD781] [A15A50AE] CRC32
01 47,8 [45897A10] [2D99CB71]
02 57,8 [7C5CE8B4] [8AB70BDE]
03 71,5 [55CAD597] [07809279]
04 23,2 [6B4C7805] [01FF60E0]
05 52,8 [9F2E4A46] [962FDDE3]
06 53,4 [D088C2D4] [5837939A]
07 73,8 [404723B4] [64C75C3D]
08 83,9 [F309629E] [C5192E82]
09 93,3 [B08C8A22] [A5E4F212]
10 50,9 [08B58A36] [B83D9BFD]
11 47,3 [34038BE4] [BEB6805F]
12 24,4 [65BF22C4] [FD6C77C2]
13 69,5 [E897DAD7] [6915C8ED]
14 72,2 [C562B271] [3F1DB281]
15 70,8 [13C08265] [2C011F27]
16 74,3 [93DB8F13] [6357194C]

Thanks to the Original ripper (unknown)!

Download: