Subcategories

Yoni - My Little Yoni (1994)

Posted By: gribovar
Yoni - My Little Yoni (1994)

Yoni - My Little Yoni (1994)
EAC Rip | FLAC (image+.cue+log) - 404 MB | MP3 CBR 320 kbps (LAME 3.93) - 166 MB | Covers - 24 MB
Genre: IDM, Techno | RAR 3% Rec. | Label: Source Records (cd 940815)

A hidden timeless techno gem that has classic written all over it! Followers of The Black Dog, B12, Future Beat Alliance, Redshape, Plaid(aka Repeat) should make sure not miss out this album. Great techno that fits perfectly in the peak of 90's techno era.
Tracklist:
01. Creepy Bitch
02. Spirit Of Adventure
03. Black Forest
04. Aquasonics
05. Beanz Meanz Jazz
06. P-Yonic
07. Beach Bum
08. Funk Star (Classic Mix)

Total time: 01:10:47

Exact Audio Copy V0.99 prebeta 5 from 4. May 2009

EAC extraction logfile from 10. August 2010, 0:01

Yoni / My Little Yoni

Used drive : PIONEER DVD-RW DVR-111 Adapter: 2 ID: 0

Read mode : Secure
Utilize accurate stream : Yes
Defeat audio cache : Yes
Make use of C2 pointers : No

Read offset correction : 48
Overread into Lead-In and Lead-Out : No
Fill up missing offset samples with silence : Yes
Delete leading and trailing silent blocks : No
Null samples used in CRC calculations : Yes
Used interface : Installed external ASPI interface

Used output format : User Defined Encoder
Selected bitrate : 1024 kBit/s
Quality : High
Add ID3 tag : No
Command line compressor : C:\Program Files\Exact Audio Copy\FLAC\FLAC.EXE
Additional command line options : -8 -V -T "ARTIST=%a" -T "ALBUM=%g" -T "DATE=%y" -T "GENRE=%m" %s -o %d


TOC of the extracted CD

Track | Start | Length | Start sector | End sector
––––––––––––––––––––––––––––-
1 | 0:00.00 | 9:18.62 | 0 | 41911
2 | 9:18.62 | 10:16.40 | 41912 | 88151
3 | 19:35.27 | 7:17.73 | 88152 | 120999
4 | 26:53.25 | 8:04.47 | 121000 | 157346
5 | 34:57.72 | 8:49.05 | 157347 | 197026
6 | 43:47.02 | 12:32.55 | 197027 | 253481
7 | 56:19.57 | 7:14.50 | 253482 | 286081
8 | 63:34.32 | 7:12.60 | 286082 | 318541


Range status and errors

Selected range

Filename J:\temp\nnm\Yoni - My Little Yoni.wav

Peak level 99.0 %
Range quality 100.0 %
Test CRC 9C9541D7
Copy CRC 9C9541D7
Copy OK

No errors occurred


AccurateRip summary

Track 1 not present in database
Track 2 not present in database
Track 3 not present in database
Track 4 not present in database
Track 5 not present in database
Track 6 not present in database
Track 7 not present in database
Track 8 not present in database

None of the tracks are present in the AccurateRip database

End of status report

[CUETools log; Date: 04.09.2017 18:13:11; Version: 2.1.4]
[CTDB TOCID: alew4cpuYIcE9WFwuCyg8j4dhpQ-] found.
Track | CTDB Status
1 | (4/4) Accurately ripped
2 | (4/4) Accurately ripped
3 | (4/4) Accurately ripped
4 | (4/4) Accurately ripped
5 | (4/4) Accurately ripped
6 | (4/4) Accurately ripped
7 | (4/4) Accurately ripped
8 | (4/4) Accurately ripped
[AccurateRip ID: 001654f8-00947c0e-72109708] found.
Track [ CRC | V2 ] Status
01 [48dd50ac|de9ac8b7] (2+3/5) Accurately ripped
02 [999c8f3e|770538ce] (2+3/5) Accurately ripped
03 [a150f7bb|9a44e62b] (2+3/5) Accurately ripped
04 [b1736a31|1f64ab06] (2+3/5) Accurately ripped
05 [f03e6608|7df30420] (2+3/5) Accurately ripped
06 [288981e7|a5a63163] (2+2/4) Accurately ripped
07 [cb04aff1|e44e076e] (2+3/5) Accurately ripped
08 [ff6cf7f1|f86ec7e2] (2+3/5) Accurately ripped

Track Peak [ CRC32 ] [W/O NULL] [ LOG ]
– 99,0 [9C9541D7] [4F9B3086] CRC32
01 99,0 [5658D6DF] [5BD91C86]
02 97,0 [157AEA88] [A4BBFFDB]
03 98,5 [7B1C2547] [C4E8AFA7]
04 99,0 [3E483DF7] [EC79A779]
05 97,5 [CAA8120C] [52A3CD82]
06 98,1 [5AF48C38] [BF8BA746]
07 96,9 [677FE955] [BB804F00]
08 97,7 [447C35E3] [6ADCA5FF]

Thanks to _ok