Subcategories

York - Traveller (2016)

Posted By: gribovar
York - Traveller (2016)

York - Traveller (2016)
EAC Rip | FLAC (tracks+.cue+log) - 806 MB | Covers - 588 MB
Genre: Chillout, Downtempo, Synthpop | RAR 3% Rec. | Label: Sony Music/ Black Hole Recordings (88985365792)

Including 'Traveller', York has finished four studio albums. It took him three years to finish this double-album that features 20 new songs, and like his previous Album Islander, it has completely produced entirely on the Caribbean island of Antigua.
CD 1 Tracklist (Chilled):
01. York with Nathan Red & Kim Sanders - How Did I Fall In Love?
02. York feat. R.I.B. & Jörg Stenzel - Salty Belle
03. York feat. Ginger MacKenzie - My Ship
04. Traveller
05. York with Nathan Red feat. Jörg Stenzel - Burning Flame
06. York with Ferry Tale feat. Asheni - Under The Stars
07. York with Rank 1 feat. Lola - This World Is So Amazing
08. York with Mysticage - Oceanica
09. York with Dreamy feat. Leila - Once Upon A Time
10. York with Anthya - The Horizon Of Mars
11. York with Project Blue Sun - Crusin'
12. York with Wadadli Acoustics - Nothing Is Over
13. York with Deep Voices feat. Alexander K.G. Klaus - With You

Total time: 01:16:17

CD 2 Tracklist (Not So Chilled):
01. York with Nathan Red feat. Doris Pearson - Moving In The Shadows
02. York & Marco Torrance - Lilileaf Ladybell
03. York with J.L. - Seaborne
04. York with Tumi Thusi - Bayette
05. York with ATB - Right Back To You
06. York with Taucher & Ayla - Kings & Queens (Stoneface & Terminal Remix)
07. York with Nathan Red feat. Scar - Feels Like Heaven
08. York with Chola feat. Alexander K.G. Klaus - Greyhound
09. York - Interlude
10. York - What Are We Waiting For
11. York with Arlen - We Are

Total time: 52:43

Exact Audio Copy V1.1 from 23. June 2015

EAC extraction logfile from 18. October 2016, 12:52

York / Traveller (Limited Edition): Chilled

Used drive : ASUS BW-12B1ST Adapter: 1 ID: 0

Read mode : Secure
Utilize accurate stream : Yes
Defeat audio cache : Yes
Make use of C2 pointers : No

Read offset correction : 6
Overread into Lead-In and Lead-Out : No
Fill up missing offset samples with silence : Yes
Delete leading and trailing silent blocks : No
Null samples used in CRC calculations : Yes
Used interface : Native Win32 interface for Win NT & 2000
Gap handling : Appended to previous track

Used output format : User Defined Encoder
Selected bitrate : 1024 kBit/s
Quality : High
Add ID3 tag : No
Command line compressor : D:\Encoders\flac-1.3.1-win\win64\flac.exe
Additional command line options : -8 -V -T "COMMENT=www.new-team.org" -T "ARTIST=%artist%" -T "TITLE=%title%" -T "ALBUM=%albumtitle%" -T "DATE=%year%" -T "TRACKNUMBER=%tracknr%" -T "GENRE=%genre%" -T "ALBUMARTIST=%albumartist%" -T "DISCNUMBER=%cdnumber%" -T "TOTALDISCS=%totalcds%" -T "TOTALTRACKS=%numtracks%" %source%


TOC of the extracted CD

Track | Start | Length | Start sector | End sector
––––––––––––––––––––––––––––-
1 | 0:00.00 | 8:01.20 | 0 | 36094
2 | 8:01.20 | 6:21.68 | 36095 | 64737
3 | 14:23.13 | 4:20.22 | 64738 | 84259
4 | 18:43.35 | 4:17.16 | 84260 | 103550
5 | 23:00.51 | 6:45.59 | 103551 | 133984
6 | 29:46.35 | 5:51.63 | 133985 | 160372
7 | 35:38.23 | 4:29.30 | 160373 | 180577
8 | 40:07.53 | 7:21.20 | 180578 | 213672
9 | 47:28.73 | 6:08.50 | 213673 | 241322
10 | 53:37.48 | 5:38.54 | 241323 | 266726
11 | 59:16.27 | 6:43.23 | 266727 | 296974
12 | 65:59.50 | 4:48.66 | 296975 | 318640
13 | 70:48.41 | 5:28.67 | 318641 | 343307


Track 1

Filename D:\York - Traveller (Limited Edition) (2016)\CD1 - Chilled\01-York with Nathan Red & Kim Sanders-How Did I Fall In Love.wav

Pre-gap length 0:00:02.00

Peak level 100.0 %
Extraction speed 5.2 X
Track quality 100.0 %
Test CRC 51411C81
Copy CRC 51411C81
Track not present in AccurateRip database
Copy OK

Track 2

Filename D:\York - Traveller (Limited Edition) (2016)\CD1 - Chilled\02-York feat. R.I.B. & Jörg Stenzel-Salty Belle.wav

Peak level 100.0 %
Extraction speed 6.0 X
Track quality 100.0 %
Test CRC 93C30407
Copy CRC 93C30407
Track not present in AccurateRip database
Copy OK

Track 3

Filename D:\York - Traveller (Limited Edition) (2016)\CD1 - Chilled\03-York feat. Ginger MacKenzie-My Ship.wav

Peak level 100.0 %
Extraction speed 5.2 X
Track quality 99.9 %
Test CRC 92B3D60F
Copy CRC 92B3D60F
Track not present in AccurateRip database
Copy OK

Track 4

Filename D:\York - Traveller (Limited Edition) (2016)\CD1 - Chilled\04-York-Traveller.wav

Peak level 100.0 %
Extraction speed 6.5 X
Track quality 100.0 %
Test CRC B498CC2D
Copy CRC B498CC2D
Track not present in AccurateRip database
Copy OK

Track 5

Filename D:\York - Traveller (Limited Edition) (2016)\CD1 - Chilled\05-York with Nathan Red feat. Jörg Stenzel-Burning Flame.wav

Peak level 100.0 %
Extraction speed 7.2 X
Track quality 100.0 %
Test CRC 624F0410
Copy CRC 624F0410
Track not present in AccurateRip database
Copy OK

Track 6

Filename D:\York - Traveller (Limited Edition) (2016)\CD1 - Chilled\06-York with Ferry Tale feat. Asheni-Under The Stars.wav

Peak level 100.0 %
Extraction speed 7.5 X
Track quality 100.0 %
Test CRC E81AA936
Copy CRC E81AA936
Track not present in AccurateRip database
Copy OK

Track 7

Filename D:\York - Traveller (Limited Edition) (2016)\CD1 - Chilled\07-York with Rank 1 feat. Lola-This World Is So Amazing.wav

Peak level 100.0 %
Extraction speed 7.7 X
Track quality 100.0 %
Test CRC 69B3D4DB
Copy CRC 69B3D4DB
Track not present in AccurateRip database
Copy OK

Track 8

Filename D:\York - Traveller (Limited Edition) (2016)\CD1 - Chilled\08-York with Mysticage-Oceanica.wav

Peak level 100.0 %
Extraction speed 8.5 X
Track quality 100.0 %
Test CRC 573B5298
Copy CRC 573B5298
Track not present in AccurateRip database
Copy OK

Track 9

Filename D:\York - Traveller (Limited Edition) (2016)\CD1 - Chilled\09-York with Dreamy feat. Leila-Once Upon A Time.wav

Peak level 100.0 %
Extraction speed 8.7 X
Track quality 100.0 %
Test CRC D64C32FE
Copy CRC D64C32FE
Track not present in AccurateRip database
Copy OK

Track 10

Filename D:\York - Traveller (Limited Edition) (2016)\CD1 - Chilled\10-York with Anthya-The Horizon Of Mars.wav

Peak level 100.0 %
Extraction speed 9.0 X
Track quality 100.0 %
Test CRC 769A4673
Copy CRC 769A4673
Track not present in AccurateRip database
Copy OK

Track 11

Filename D:\York - Traveller (Limited Edition) (2016)\CD1 - Chilled\11-York with Project Blue Sun-Crusin'.wav

Peak level 100.0 %
Extraction speed 9.4 X
Track quality 100.0 %
Test CRC B4A0996D
Copy CRC B4A0996D
Track not present in AccurateRip database
Copy OK

Track 12

Filename D:\York - Traveller (Limited Edition) (2016)\CD1 - Chilled\12-York with Wadadli Acoustics-Nothing Is Over.wav

Peak level 100.0 %
Extraction speed 7.7 X
Track quality 99.9 %
Test CRC 91E0B6A4
Copy CRC 91E0B6A4
Track not present in AccurateRip database
Copy OK

Track 13

Filename D:\York - Traveller (Limited Edition) (2016)\CD1 - Chilled\13-York with Deep Voices feat. Alexander K.G. Klaus-With You.wav

Peak level 100.0 %
Extraction speed 4.2 X
Track quality 99.7 %
Test CRC 2A3DBA9C
Copy CRC 2A3DBA9C
Track not present in AccurateRip database
Copy OK


None of the tracks are present in the AccurateRip database

No errors occurred

End of status report

–– CUETools DB Plugin V2.1.6

[CTDB TOCID: 5w4Amm_T.prU4EqLvEwaE7ZR8EA-] found
Submit result: already submitted
Track | CTDB Status
1 | (1/1) Accurately ripped
2 | (1/1) Accurately ripped
3 | (1/1) Accurately ripped
4 | (1/1) Accurately ripped
5 | (1/1) Accurately ripped
6 | (1/1) Accurately ripped
7 | (1/1) Accurately ripped
8 | (1/1) Accurately ripped
9 | (1/1) Accurately ripped
10 | (1/1) Accurately ripped
11 | (1/1) Accurately ripped
12 | (1/1) Accurately ripped
13 | (1/1) Accurately ripped


==== Log checksum 10C457EA93FA13869EC385989CE433E05990F4E900A09900754AB3F229EC152B ====

[CUETools log; Date: 24.10.2019 18:54:39; Version: 2.1.4]
[CTDB TOCID: 5w4Amm_T.prU4EqLvEwaE7ZR8EA-] found.
Track | CTDB Status
1 | (5/5) Accurately ripped
2 | (5/5) Accurately ripped
3 | (5/5) Accurately ripped
4 | (5/5) Accurately ripped
5 | (5/5) Accurately ripped
6 | (5/5) Accurately ripped
7 | (5/5) Accurately ripped
8 | (5/5) Accurately ripped
9 | (5/5) Accurately ripped
10 | (5/5) Accurately ripped
11 | (5/5) Accurately ripped
12 | (5/5) Accurately ripped
13 | (5/5) Accurately ripped
[AccurateRip ID: 00254bc3-0172681e-ba11e10d] found.
Track [ CRC | V2 ] Status
01 [61b69352|9941b748] (0+2/2) Accurately ripped
02 [4130a4c0|6e49e5ca] (0+2/2) Accurately ripped
03 [33080093|96471d02] (0+2/2) Accurately ripped
04 [690b8f48|bbf35942] (0+2/2) Accurately ripped
05 [88fe7c20|921e56fe] (0+2/2) Accurately ripped
06 [00ee1726|2675d16f] (0+2/2) Accurately ripped
07 [c439a218|2c17f947] (0+2/2) Accurately ripped
08 [2ff117f6|edc41bcb] (0+2/2) Accurately ripped
09 [a951222b|e5ac9c60] (0+2/2) Accurately ripped
10 [939071c4|080e4f06] (0+2/2) Accurately ripped
11 [96484a36|1268ca6e] (0+2/2) Accurately ripped
12 [11af8f61|0f7bd926] (0+2/2) Accurately ripped
13 [e255d9ca|113f54f0] (0+2/2) Accurately ripped

Track Peak [ CRC32 ] [W/O NULL] [ LOG ]
– 100,0 [4F6EE95B] [775FA8FF]
01 100,0 [51411C81] [184F04CD] CRC32
02 100,0 [93C30407] [F7600BFB] CRC32
03 100,0 [92B3D60F] [991069EF] CRC32
04 100,0 [B498CC2D] [149CBB06] CRC32
05 100,0 [624F0410] [539BFD1F] CRC32
06 100,0 [E81AA936] [4D5E94F0] CRC32
07 100,0 [69B3D4DB] [9EA5CB78] CRC32
08 100,0 [573B5298] [B9335A1B] CRC32
09 100,0 [D64C32FE] [EABD175E] CRC32
10 100,0 [769A4673] [FE3BA267] CRC32
11 100,0 [B4A0996D] [9A9C46E4] CRC32
12 100,0 [91E0B6A4] [C5D51058] CRC32
13 100,0 [2A3DBA9C] [53A27522] CRC32

Exact Audio Copy V1.1 from 23. June 2015

EAC extraction logfile from 18. October 2016, 13:28

York / Traveller (Limited Edition): Not So Chilled

Used drive : ASUS BW-12B1ST Adapter: 1 ID: 0

Read mode : Secure
Utilize accurate stream : Yes
Defeat audio cache : Yes
Make use of C2 pointers : No

Read offset correction : 6
Overread into Lead-In and Lead-Out : No
Fill up missing offset samples with silence : Yes
Delete leading and trailing silent blocks : No
Null samples used in CRC calculations : Yes
Used interface : Native Win32 interface for Win NT & 2000
Gap handling : Appended to previous track

Used output format : User Defined Encoder
Selected bitrate : 1024 kBit/s
Quality : High
Add ID3 tag : No
Command line compressor : D:\Encoders\flac-1.3.1-win\win64\flac.exe
Additional command line options : -8 -V -T "COMMENT=www.new-team.org" -T "ARTIST=%artist%" -T "TITLE=%title%" -T "ALBUM=%albumtitle%" -T "DATE=%year%" -T "TRACKNUMBER=%tracknr%" -T "GENRE=%genre%" -T "ALBUMARTIST=%albumartist%" -T "DISCNUMBER=%cdnumber%" -T "TOTALDISCS=%totalcds%" -T "TOTALTRACKS=%numtracks%" %source%


TOC of the extracted CD

Track | Start | Length | Start sector | End sector
––––––––––––––––––––––––––––-
1 | 0:00.00 | 6:50.09 | 0 | 30758
2 | 6:50.09 | 4:19.03 | 30759 | 50186
3 | 11:09.12 | 6:47.34 | 50187 | 80745
4 | 17:56.46 | 6:47.66 | 80746 | 111336
5 | 24:44.37 | 4:13.66 | 111337 | 130377
6 | 28:58.28 | 3:58.02 | 130378 | 148229
7 | 32:56.30 | 5:25.46 | 148230 | 172650
8 | 38:22.01 | 5:17.26 | 172651 | 196451
9 | 43:39.27 | 0:56.58 | 196452 | 200709
10 | 44:36.10 | 3:58.43 | 200710 | 218602
11 | 48:34.53 | 4:08.16 | 218603 | 237218


Track 1

Filename D:\York - Traveller (Limited Edition) (2016)\CD2 - Not So Chilled\01-York with Nathan Red feat. Doris Pearson-Moving In The Shadows.wav

Pre-gap length 0:00:02.00

Peak level 100.0 %
Extraction speed 4.5 X
Track quality 100.0 %
Test CRC 3807519E
Copy CRC 3807519E
Track not present in AccurateRip database
Copy OK

Track 2

Filename D:\York - Traveller (Limited Edition) (2016)\CD2 - Not So Chilled\02-York & Marco Torrance-Lilileaf Ladybell.wav

Peak level 100.0 %
Extraction speed 4.9 X
Track quality 100.0 %
Test CRC FE0CBBD5
Copy CRC FE0CBBD5
Track not present in AccurateRip database
Copy OK

Track 3

Filename D:\York - Traveller (Limited Edition) (2016)\CD2 - Not So Chilled\03-York with J.L.-Seaborne.wav

Peak level 100.0 %
Extraction speed 5.7 X
Track quality 100.0 %
Test CRC 87B3CBDE
Copy CRC 87B3CBDE
Track not present in AccurateRip database
Copy OK

Track 4

Filename D:\York - Traveller (Limited Edition) (2016)\CD2 - Not So Chilled\04-York with Tumi Thusi-Bayette.wav

Peak level 100.0 %
Extraction speed 6.2 X
Track quality 100.0 %
Test CRC EBF28971
Copy CRC EBF28971
Track not present in AccurateRip database
Copy OK

Track 5

Filename D:\York - Traveller (Limited Edition) (2016)\CD2 - Not So Chilled\05-York with ATB-Right Back To You.wav

Peak level 95.5 %
Extraction speed 6.4 X
Track quality 100.0 %
Test CRC B77F2483
Copy CRC B77F2483
Track not present in AccurateRip database
Copy OK

Track 6

Filename D:\York - Traveller (Limited Edition) (2016)\CD2 - Not So Chilled\06-York with Taucher & Ayla-Kings & Queens (Stoneface & Terminal Remix).wav

Peak level 82.3 %
Extraction speed 5.4 X
Track quality 99.9 %
Test CRC 8867EC33
Copy CRC 8867EC33
Track not present in AccurateRip database
Copy OK

Track 7

Filename D:\York - Traveller (Limited Edition) (2016)\CD2 - Not So Chilled\07-York with Nathan Red feat. Scar-Feels Like Heaven.wav

Peak level 100.0 %
Extraction speed 7.0 X
Track quality 100.0 %
Test CRC 3216FBE7
Copy CRC 3216FBE7
Track not present in AccurateRip database
Copy OK

Track 8

Filename D:\York - Traveller (Limited Edition) (2016)\CD2 - Not So Chilled\08-York with Chola feat. Alexander K.G. Klaus-Greyhound.wav

Peak level 100.0 %
Extraction speed 7.5 X
Track quality 100.0 %
Test CRC 3B270B6E
Copy CRC 3B270B6E
Track not present in AccurateRip database
Copy OK

Track 9

Filename D:\York - Traveller (Limited Edition) (2016)\CD2 - Not So Chilled\09-York-Interlude.wav

Peak level 77.8 %
Extraction speed 3.3 X
Track quality 99.8 %
Test CRC A9AC5442
Copy CRC A9AC5442
Track not present in AccurateRip database
Copy OK

Track 10

Filename D:\York - Traveller (Limited Edition) (2016)\CD2 - Not So Chilled\10-York-What Are We Waiting For.wav

Peak level 100.0 %
Extraction speed 7.5 X
Track quality 100.0 %
Test CRC E0694318
Copy CRC E0694318
Track not present in AccurateRip database
Copy OK

Track 11

Filename D:\York - Traveller (Limited Edition) (2016)\CD2 - Not So Chilled\11-York with Arlen-We Are.wav

Peak level 100.0 %
Extraction speed 7.4 X
Track quality 100.0 %
Test CRC 05F0262B
Copy CRC 05F0262B
Track not present in AccurateRip database
Copy OK


None of the tracks are present in the AccurateRip database

No errors occurred

End of status report

–– CUETools DB Plugin V2.1.6

[CTDB TOCID: 5GjFPUjz9xW_P5su318c_5b_QiI-] disk not present in database
Submit result: 5GjFPUjz9xW_P5su318c_5b_QiI- has been uploaded


==== Log checksum 0C095DA8FDF61A92F190D5C4D71FD22BE20B4C0302D54192CD709F3D06533789 ====

[CUETools log; Date: 24.10.2019 18:54:58; Version: 2.1.4]
[CTDB TOCID: 5GjFPUjz9xW_P5su318c_5b_QiI-] found.
Track | CTDB Status
1 | (4/5) Accurately ripped
2 | (5/5) Accurately ripped
3 | (5/5) Accurately ripped
4 | (5/5) Accurately ripped
5 | (5/5) Accurately ripped
6 | (5/5) Accurately ripped
7 | (4/5) Accurately ripped
8 | (5/5) Accurately ripped
9 | (5/5) Accurately ripped
10 | (4/5) Accurately ripped
11 | (5/5) Accurately ripped
[AccurateRip ID: 00181138-00cb3c60-9c0c5a0b] found.
Track [ CRC | V2 ] Status
01 [6adc622a|a17f10ab] (0+2/2) Accurately ripped
02 [b11eb34b|30b15ba3] (0+2/2) Accurately ripped
03 [57d0c884|d959ab53] (0+2/2) Accurately ripped
04 [b3d12e98|b8023d7d] (0+2/2) Accurately ripped
05 [b65c0647|f1d9129c] (0+2/2) Accurately ripped
06 [2dfd9081|d5f6f764] (0+2/2) Accurately ripped
07 [8dcf7651|229f35c3] (0+2/2) Accurately ripped
08 [a1ab7843|c4ff567a] (0+2/2) Accurately ripped
09 [39852477|75c4e615] (0+2/2) Accurately ripped
10 [f828c2cb|09db2ec8] (0+2/2) Accurately ripped
11 [18a6d97f|c4aabf38] (0+2/2) Accurately ripped

Track Peak [ CRC32 ] [W/O NULL] [ LOG ]
– 100,0 [F62F30F1] [0AD0B1D0]
01 100,0 [3807519E] [11C6C1E3] CRC32
02 100,0 [FE0CBBD5] [3BF290FB] CRC32
03 100,0 [87B3CBDE] [76B21F7D] CRC32
04 100,0 [EBF28971] [F7F9B69F] CRC32
05 95,5 [B77F2483] [90156CE7] CRC32
06 82,3 [8867EC33] [1A8BA857] CRC32
07 100,0 [3216FBE7] [847CF479] CRC32
08 100,0 [3B270B6E] [614E82AD] CRC32
09 77,8 [A9AC5442] [19DCC956] CRC32
10 100,0 [E0694318] [7F8FC9C7] CRC32
11 100,0 [05F0262B] [136F4335] CRC32

Thanks to DrStandBy