Tags
Language
Tags

Yusef Lateef - Cry!-Tender (1960) [Reissue 1990]

Posted By: gribovar
Yusef Lateef - Cry!-Tender (1960) [Reissue 1990]

Yusef Lateef - Cry!-Tender (1960) [Reissue 1990]
EAC Rip | FLAC (image+.cue+log) - 220 MB | MP3 CBR 320 kbps (LAME 3.93) - 90 MB | Covers included
Genre: Jazz, World Fusion | RAR 3% Rec. | Label: OJC/New Jazz (OJCCD-482-2 (NJ 8234))

In 1959, Yusef Lateef began using the oboe in his recording sessions and on live dates. This album marks that occasion, and is thus a turning point in an amazingly long and varied career. Accompanied by Lonnie Hillyer on trumpet, Hugh Lawson on piano, bassist Herman Wright, and drummer Frank Gant, Lateef was digging deeply into a new lyricism that was Eastern-tinged (the full flavor of that obsession would be issued two years later on Eastern Sounds and had been touched upon two years earlier on Other Sounds, released on New Jazz, where Lateef had used an argol as well as his sax and flute), modally informed, and distinctly light in texture - with the exception of the deep, dark, arco work at the beginning of "Dopolous," by Wright. Lateef was already moving away from what most people would call jazz by this time, yet, as evidenced here, his music remained challenging and very accessible. This is meditative music with a stunningly rich rhythmic palette for how muted and edgeless it is. And, like John Cage or Morton Feldman, the absence of those edges was written in; it's not random. On tunes like the aforementioned, "Butter's Blues," or even "If You Could See Me Now," Lateef could take the blues and move it into shadowy territory, pulling out of the intervals and changes certain harmonic concepts to turn the music back on itself. If restraint got practiced in the dynamic range, the drama in the music would be all the greater because of the wider harmonic palette - because it could be heard, not just felt. The result is a seamless, velvety, yet poignant take on the blues that echoed the tears referenced in the title of the album. And yet, the beauty, such a tender beauty, was so unspeakably fragile that the brass and reed instruments seemed to hover over the rhythm section and cut holes in the air like fine razors that can only be praised for the fineness of their slash. This was the beginning of Lateef's change in direction and, as a result, it deserves to be noted for that. However, it needs to be doubly noted for its truly magnificent sound, texture, playing, composition, and choice of tunes.
Tracklist:
01. Sea Breeze
02. Dopolous
03. Cry!-Tender
04. Butter's Blues
05. Yesterdays
06. The Snow Is Green
07. If You Could See Me Now
08. Ecaps

Total time: 37:12

Exact Audio Copy V0.99 prebeta 4 from 23. January 2008

EAC extraction logfile from 30. March 2009, 11:59

Yusef Lateef / Cry! - Tender

Used drive : HL-DT-STDVD-RAM GH22NP20 Adapter: 1 ID: 1

Read mode : Secure
Utilize accurate stream : Yes
Defeat audio cache : Yes
Make use of C2 pointers : No

Read offset correction : 102
Overread into Lead-In and Lead-Out : No
Fill up missing offset samples with silence : Yes
Delete leading and trailing silent blocks : No
Null samples used in CRC calculations : Yes
Used interface : Installed external ASPI interface

Used output format : Internal WAV Routines
Sample format : 44.100 Hz; 16 Bit; Stereo


TOC of the extracted CD

Track | Start | Length | Start sector | End sector
––––––––––––––––––––––––––––-
1 | 0:00.00 | 3:11.50 | 0 | 14374
2 | 3:11.50 | 3:18.10 | 14375 | 29234
3 | 6:29.60 | 6:00.55 | 29235 | 56289
4 | 12:30.40 | 5:45.07 | 56290 | 82171
5 | 18:15.47 | 4:24.05 | 82172 | 101976
6 | 22:39.52 | 3:13.05 | 101977 | 116456
7 | 25:52.57 | 4:49.13 | 116457 | 138144
8 | 30:41.70 | 6:30.20 | 138145 | 167414


Range status and errors

Selected range

Filename C:\Documents and Settings\Proprietario.RT\Desktop\R\Yusef Lateef - Cry! - Tender.wav

Peak level 97.6 %
Range quality 99.9 %
Copy CRC 97A90E76
Copy OK

No errors occurred

End of status report

[CUETools log; Date: 11.08.2019 2:27:39; Version: 2.1.4]
[CTDB TOCID: YKaT0EerHMOpoBk6IlfdNGyaYYQ-] found.
Track | CTDB Status
1 | (30/30) Accurately ripped
2 | (30/30) Accurately ripped
3 | (29/30) Accurately ripped
4 | (30/30) Accurately ripped
5 | (30/30) Accurately ripped
6 | (30/30) Accurately ripped
7 | (30/30) Accurately ripped
8 | (30/30) Accurately ripped
[AccurateRip ID: 000ac612-00491c88-6508b808] found.
Track [ CRC | V2 ] Status
01 [bd625357|47db8605] (03+06/16) Accurately ripped
02 [522f5cfa|248eb7cd] (03+06/16) Accurately ripped
03 [283815c0|d9337284] (03+06/16) Accurately ripped
04 [3237e01c|d6c3d28d] (03+06/16) Accurately ripped
05 [9a2d722a|ab6c61e4] (03+06/16) Accurately ripped
06 [8ab74e90|5733341b] (03+06/16) Accurately ripped
07 [b42293c5|2e308d2b] (03+06/16) Accurately ripped
08 [fe9cf506|aa3aeee2] (03+06/16) Accurately ripped
Offsetted by -664:
01 [0a13ef27] (04/16) Accurately ripped
02 [042c0dd3] (04/16) Accurately ripped
03 [8fd37b71] (04/16) Accurately ripped
04 [d007ed30] (04/16) Accurately ripped
05 [f7c67a47] (04/16) Accurately ripped
06 [e370fb39] (04/16) Accurately ripped
07 [1ab9f302] (04/16) Accurately ripped
08 [5fc16d3b] (04/16) Accurately ripped
Offsetted by -86:
01 [627d4fc3] (00/16) No match (V2 was not tested)
02 [9c894f57] (00/16) No match (V2 was not tested)
03 [8a26c114] (00/16) No match (V2 was not tested)
04 [b8618a10] (00/16) No match (V2 was not tested)
05 [678b5b2e] (00/16) No match (V2 was not tested)
06 [efb32fa4] (00/16) No match (V2 was not tested)
07 [4689393f] (00/16) No match (V2 was not tested)
08 [78cdcf73] (00/16) No match (V2 was not tested)

Track Peak [ CRC32 ] [W/O NULL] [ LOG ]
– 97,5 [97A90E76] [6CF23874] CRC32
01 54,7 [7C150810] [D36A3E9A]
02 79,6 [9F6074C2] [68A53B8D]
03 92,3 [5FAE93DE] [6D86C24B]
04 89,8 [7DF80540] [54EDDFD8]
05 76,8 [98B1E963] [B1F5B29E]
06 97,5 [4D446479] [D294CD38]
07 67,4 [8F8A6D83] [72DDEC1E]
08 80,0 [AC5A6B4B] [7B20B6E9]

Thanks to bINkI