Tags
Language
Tags

ZZ Top - Afterburner (1985) {Japan 1st Press}

Posted By: popsakov
ZZ Top - Afterburner (1985) {Japan 1st Press}

ZZ Top - Afterburner (1985) {Japan 1st Press}
EAC Rip | FLAC (Img) + Cue + Log ~ 269 Mb | MP3 CBR320 ~ 92 Mb
Scans Included | RAR 5% Recovery
Boogie Rock, Blues Rock, Hard Rock, Synth Rock | Warner-Pioneer Corp. #32XD-374

Afterburner is the ninth studio album by the American rock band ZZ Top, released in 1985. Afterburner was a financial success, going several times platinum and launching several hit singles, the most successful of which was "Sleeping Bag" which peaked at No. 1 on the Mainstream Rock Tracks and at No. 8 on the Billboard Hot 100. In the UK, it was the band's second album to be certified by the British Phonographic Industry, attaining Gold in 1985. In 1990, it was certified Platinum in the UK.

Well, if you just had your biggest hit ever, you'd probably try to replicate it, too. And if you were praised for being visionary because you played all your blues grooves to a slightly sequenced beat, you'd probably be tempted to not just continue in that direction, but to tighten the sequencer and graft on synthesizers, since it'll all signal how futuristic you are. While you're at it, you might visualize how space age this all is by turning your signature car into a space shuttle. If you look at things that way, then Afterburner, ZZ Top's follow-up to their blockbuster Eliminator, makes sense – they're just giving the people more of what they want. Problem is, no matter how much you dress ZZ Top up, they're still ZZ Top. Sometimes they can trick you into thinking they're a little flashier than usual, but they're still a lil' ol' blues band from Texas, kicking out blues-rockers. And blues-rock just doesn't kick when it's synthesized, even if ZZ Top's grooves always bordered on robotic. So, Afterburner, their most synthetic album, will not please most ZZ Top fans, even if it did go platinum several time over and reached number four. That's all just a sign of the times, when even hard rock bands had to sound as slick as synth pop, complete with clanging DX-7s and cavernous drums. As an artifact of that time, Afterburner is pretty good – never has a hard rock album sounded so artificial, nor has a nominal blues-rock album sounded so devoid of blues. Apart from the chugging "Sleeping Bag," not even the singles sound like ZZ Top (though "Dipping Low (In the Lap of Luxury" is a blatant "Gimme All Your Lovin'" rewrite): the terrific post-new wave rocker "Stages" is the poppiest thing they ever cut, the ballad "Rough Boy" is far removed from slow blues, and the full-fledged synth dance of "Velcro Fly" is a true mind-bender. All this means that Afterburner is merely a product of its time – the only record ZZ Top could have made at the time, but it hardly exists out of that time.

~ Stephen Thomas Erlewine, All Music
ZZ Top - Afterburner (1985) {Japan 1st Press}


***************

ZZ Top - Afterburner (1985) {Japan 1st Press}

ZZ Top - Afterburner (1985) {Japan 1st Press}

Track List:

01. Sleeping Bag [4:06]
02. Stages [3:35]
03. Woke up With Wood [3:50]
04. Rough Boy [4:52]
05. Can't Stop Rockin' [3:04]
06. Planet of Women [4:07]
07. I Got the Message [3:30]
08. Velcro Fly [3:33]
09. Dipping Low in the Lap of Luxury [3:15]
10. Delirious [3:42]

Personnel:
Billy Gibbons - guitar, lead (1-4, 6-9) and backing vocals
Dusty Hill - bass guitar, backing and lead (5, 10) vocals, keyboards
Frank Beard - drums

Exact Audio Copy V0.99 prebeta 5 from 4. May 2009

Отчёт EAC об извлечении, выполненном 3. ноября 2010, 0:15

ZZ Top / Afterburner [32XD-374]

Дисковод: ASUS DRW-2014S1 Adapter: 1 ID: 0

Режим чтения : Достоверность
Использование точного потока : Да
Отключение кэша аудио : Да
Использование указателей C2 : Нет

Коррекция смещения при чтении : 6
Способность читать области Lead-in и Lead-out : Нет
Заполнение пропущенных сэмплов тишиной : Да
Удаление блоков с тишиной в начале и конце : Нет
При вычислениях CRC использовались нулевые сэмплы : Да
Интерфейс : Установленный внешний ASPI-интерфейс

Выходной формат : Пользовательский кодировщик
Выбранный битрейт : 128 kBit/s
Качество : Высокий
Добавление ID3-тэга : Нет
Утилита сжатия : C:\Program Files\Exact Audio Copy\Flac\flac.exe
Дополнительные параметры : -6 -V -T "artist=%a" -T "title=%t" -T "album=%g" -T "date=%y" -T "tracknumber=%n" -T "genre=%m" -T "comment=EAC 0.99beta5 / FLAC 1.1.0 q6" %s


TOC извлечённого CD

Трек | Старт | Длительность | Начальный сектор | Конечный сектор
––––––––––––––––––––––––––––––––––-
1 | 0:00.00 | 4:06.30 | 0 | 18479
2 | 4:06.30 | 3:35.00 | 18480 | 34604
3 | 7:41.30 | 3:49.45 | 34605 | 51824
4 | 11:31.00 | 4:52.32 | 51825 | 73756
5 | 16:23.32 | 3:04.28 | 73757 | 87584
6 | 19:27.60 | 4:06.57 | 87585 | 106091
7 | 23:34.42 | 3:30.20 | 106092 | 121861
8 | 27:04.62 | 3:32.60 | 121862 | 137821
9 | 30:37.47 | 3:15.03 | 137822 | 152449
10 | 33:52.50 | 3:42.25 | 152450 | 169124


Характеристики диапазона извлечения и сообщения об ошибках

Выбранный диапазон

Имя файла Y:\Музыка\ZZ Top\1985 Afterburner\ZZ Top - Afterburner [32XD-374].wav

Пиковый уровень 100.0 %
Качество диапазона 100.0 %
CRC теста 36CA055C
CRC копии 36CA055C
Копирование… OK

Ошибок не произошло

Конец отчёта

foobar2000 1.3.16 / Dynamic Range Meter 1.1.1
log date: 2018-08-29 22:42:36

––––––––––––––––––––––––––––––––––––––––
Analyzed: ZZ Top / Afterburner [32XD-374]
––––––––––––––––––––––––––––––––––––––––

DR Peak RMS Duration Track
––––––––––––––––––––––––––––––––––––––––
DR16 0.00 dB -17.19 dB 4:06 01-Sleeping Bag
DR13 -1.79 dB -16.41 dB 3:35 02-Stages
DR13 -1.76 dB -17.19 dB 3:50 03-Woke up With Wood
DR13 -3.79 dB -19.17 dB 4:52 04-Rough Boy
DR14 -0.91 dB -16.39 dB 3:04 05-Can't Stop Rockin'
DR12 -2.16 dB -16.01 dB 4:07 06-Planet of Women
DR14 -0.54 dB -16.25 dB 3:30 07-I Got the Message
DR14 -1.90 dB -17.24 dB 3:33 08-Velcro Fly
DR15 0.00 dB -16.41 dB 3:15 09-Dipping Low in the Lap of Luxury
DR13 -0.77 dB -16.03 dB 3:42 10-Delirious
––––––––––––––––––––––––––––––––––––––––

Number of tracks: 10
Official DR value: DR14

Samplerate: 44100 Hz
Channels: 2
Bits per sample: 16
Bitrate: 945 kbps
Codec: FLAC
================================================================================

[CUETools log; Date: 29.08.2018 22:40:29; Version: 2.1.6]
[CTDB TOCID: Ar_SjpcDvKwYWtcwWBQBKXilwWM-] found.
Track | CTDB Status
1 | (37/66) Accurately ripped
2 | (37/66) Accurately ripped
3 | (37/66) Accurately ripped
4 | (37/66) Accurately ripped
5 | (37/66) Accurately ripped
6 | (37/66) Accurately ripped
7 | (37/66) Accurately ripped
8 | (37/66) Accurately ripped
9 | (37/66) Accurately ripped
10 | (37/66) Accurately ripped
[AccurateRip ID: 000e8d03-0073bda0-8f08cf0a] found.
Track [ CRC | V2 ] Status
01 [9a04c7f0|7fbc006f] (03+08/26) Accurately ripped
02 [ef3a2796|f7eec399] (03+07/25) Accurately ripped
03 [d77d119c|e0ea8b58] (03+08/26) Accurately ripped
04 [159beec1|8bbe9fca] (03+08/26) Accurately ripped
05 [92cd2a38|5b91d141] (03+08/26) Accurately ripped
06 [442ddcac|03c24201] (03+08/26) Accurately ripped
07 [178dce36|5421fbb6] (03+07/25) Accurately ripped
08 [af48e49d|36648d60] (03+07/25) Accurately ripped
09 [00a75215|4cc33bdf] (03+08/26) Accurately ripped
10 [28d6cca3|67ff1bec] (03+08/26) Accurately ripped
Offsetted by -45:
01 [1b5abf4f] (02/26) Accurately ripped
02 [8dbb387d] (02/25) Accurately ripped
03 [1e96d6fa] (02/26) Accurately ripped
04 [b4993328] (02/26) Accurately ripped
05 [917dbb4a] (02/26) Accurately ripped
06 [e47902bc] (02/26) Accurately ripped
07 [beebddb8] (02/25) Accurately ripped
08 [557e0cc0] (02/25) Accurately ripped
09 [96e79cc5] (02/26) Accurately ripped
10 [8208f730] (02/26) Accurately ripped

Track Peak [ CRC32 ] [W/O NULL]
– 100,0 [36CA055C] [73823066]
01 100,0 [EA923999] [6E59F2AE]
02 81,3 [6AFBBF13] [05356CB5]
03 81,6 [4B3542F1] [B6EF5502]
04 64,6 [F304577C] [9EE4E02D]
05 90,0 [E63B6439] [767435CD]
06 77,9 [10C1601C] [52B7D433]
07 93,9 [091B5E46] [E2222088]
08 80,3 [D2403C91] [4F0FEBD9]
09 100,0 [45EBBF01] [62AF0313]
10 91,5 [0CD83CD7] [C2414911]

ZZ Top - Afterburner (1985) {Japan 1st Press}


All thanks go to ikebana

>>> ZZ Top in my Blog <<<

Download: