Subcategories
Tags
Language
Tags

Zephyr - Sunset Ride (1972) {2000, Remastered}

Posted By: popsakov
Zephyr - Sunset Ride (1972) {2000, Remastered}

Zephyr - Sunset Ride (1972) {2000, Remastered}
EAC Rip | FLAC (Tracks) + Cue + m3u + Log ~ 242 Mb | MP3 CBR320 ~ 121 Mb
Full Scans | 00:41:44 | RAR 5% Recovery
Classic Rock / Psychedelic Rock / Hard Rock / Blues Rock
One Way Records #OW 35170 | Unofficial Release

There are two kinds of Zephyr fans; those who think the band died when Tommy Bolin left, and those who know it didn't. Zephyr's second and final Warner Bros. album (and third album overall) featured Boulder, Colorado guitar slinger Jock Bartley in place of Bolin, the replacement of Bobby Berge and John Faris, and one of the few known recorded appearances of Bobby Notkoff, other than his work with Neil Young, for whom he created the heart-wrenching violin break on "Running Dry." Without Bolin, the band took a decided turn toward jazz. This is a stunning album, featuring unknown classics like "Moving Too Fast," "Chasing Clouds," and "Winter Always Finds Me." Lead singer Candy Givens died in 1984, and this album is perhaps her most passionate legacy.

This late-'60s Denver group is most notable as the starting point for guitarist Tommy Bolin, who was still in his teens when they recorded their first album in 1969. A rather routine slab of bluesy, heavy rock, it made the Top 50. Aside from Bolin's extended hard rock riffing, it prominently featured the lead vocals of Candy Givens, who affected a blues-wailing pose along the lines of Janis Joplin. But she didn't have the full throat or guts to back it up, ending up closer to also-ran female psychedelic singers like Lydia Pense (of Cold Blood). Zephyr recorded one more album before Bolin left for stints with James Gang, Deep Purple, and a solo career; the group carried on throughout the 1970s.

~ All Music

***************

Zephyr - Sunset Ride (1972) {2000, Remastered}

Track List:

01. I Am Not Surprised [5:17]
02. Someone To Chew [2:51]
03. High Flying Bird [3:36]
04. No Time Lonesome [4:04]
05. Moving Too Fast [5:18]
06. Sold My Heart [3:46]
07. Sierra Cowgirl [3:09]
08. Chasing Clouds [4:07]
09. Sunset Ride [3:47]
10. Winter Always Finds Me [5:50]

Exact Audio Copy V1.1 from 23. June 2015

EAC extraction logfile from 7. September 2019, 14:13

Zephyr / Sunset Ride

Used drive : Optiarc DVD RW AD-7283S Adapter: 1 ID: 0

Read mode : Secure
Utilize accurate stream : Yes
Defeat audio cache : Yes
Make use of C2 pointers : No

Read offset correction : 48
Overread into Lead-In and Lead-Out : No
Fill up missing offset samples with silence : Yes
Delete leading and trailing silent blocks : No
Null samples used in CRC calculations : Yes
Used interface : Native Win32 interface for Win NT & 2000
Gap handling : Appended to previous track

Used output format : User Defined Encoder
Selected bitrate : 128 kBit/s
Quality : High
Add ID3 tag : No
Command line compressor : C:\Program Files (x86)\Exact Audio Copy\Flac\flac.exe
Additional command line options : -V -8 -T "Genre=%genre%" -T "Artist=%artist%" -T "Title=%title%" -T "Album=%albumtitle%" -T "Date=%year%" -T "Tracknumber=%tracknr%" -T "Comment=%comment%" %source%


TOC of the extracted CD

Track | Start | Length | Start sector | End sector
––––––––––––––––––––––––––––-
1 | 0:00.00 | 5:18.50 | 0 | 23899
2 | 5:18.50 | 2:52.73 | 23900 | 36872
3 | 8:11.48 | 3:37.46 | 36873 | 53193
4 | 11:49.19 | 4:05.47 | 53194 | 71615
5 | 15:54.66 | 5:19.57 | 71616 | 95597
6 | 21:14.48 | 3:47.24 | 95598 | 112646
7 | 25:01.72 | 3:10.32 | 112647 | 126928
8 | 28:12.29 | 4:06.63 | 126929 | 145441
9 | 32:19.17 | 3:46.38 | 145442 | 162429
10 | 36:05.55 | 5:49.59 | 162430 | 188663


Track 1

Filename L:\alexbras\1972 Zephyr - Sunset Ride (2000 One Way OW 35170)\01 I Am Not Surprised.wav

Pre-gap length 0:00:02.00

Peak level 98.8 %
Extraction speed 5.0 X
Track quality 100.0 %
Test CRC 8CC7D153
Copy CRC 8CC7D153
Accurately ripped (confidence 2) [BA67D988] (AR v2)
Copy OK

Track 2

Filename L:\alexbras\1972 Zephyr - Sunset Ride (2000 One Way OW 35170)\02 Someone To Chew.wav

Pre-gap length 0:00:01.45

Peak level 98.8 %
Extraction speed 3.3 X
Track quality 99.9 %
Test CRC 4CFC8E19
Copy CRC 4CFC8E19
Accurately ripped (confidence 2) [EAD623BE] (AR v2)
Copy OK

Track 3

Filename L:\alexbras\1972 Zephyr - Sunset Ride (2000 One Way OW 35170)\03 High Flying Bird.wav

Pre-gap length 0:00:01.45

Peak level 98.8 %
Extraction speed 5.6 X
Track quality 100.0 %
Test CRC F6E4D22C
Copy CRC F6E4D22C
Accurately ripped (confidence 2) [3EFA052F] (AR v2)
Copy OK

Track 4

Filename L:\alexbras\1972 Zephyr - Sunset Ride (2000 One Way OW 35170)\04 No Time Lonesome.wav

Pre-gap length 0:00:01.45

Peak level 98.8 %
Extraction speed 6.1 X
Track quality 100.0 %
Test CRC 59FF9A3E
Copy CRC 59FF9A3E
Accurately ripped (confidence 2) [AC3B1A0C] (AR v2)
Copy OK

Track 5

Filename L:\alexbras\1972 Zephyr - Sunset Ride (2000 One Way OW 35170)\05 Moving Too Fast.wav

Pre-gap length 0:00:01.45

Peak level 98.8 %
Extraction speed 6.7 X
Track quality 100.0 %
Test CRC B92841BA
Copy CRC B92841BA
Accurately ripped (confidence 2) [5155B8AB] (AR v2)
Copy OK

Track 6

Filename L:\alexbras\1972 Zephyr - Sunset Ride (2000 One Way OW 35170)\06 Sold My Heart.wav

Pre-gap length 0:00:01.45

Peak level 98.8 %
Extraction speed 6.9 X
Track quality 100.0 %
Test CRC 27BAF751
Copy CRC 27BAF751
Accurately ripped (confidence 2) [23CCEC9B] (AR v2)
Copy OK

Track 7

Filename L:\alexbras\1972 Zephyr - Sunset Ride (2000 One Way OW 35170)\07 Sierra Cowgirl.wav

Pre-gap length 0:00:01.45

Peak level 98.8 %
Extraction speed 7.0 X
Track quality 100.0 %
Test CRC 57E92BB0
Copy CRC 57E92BB0
Accurately ripped (confidence 2) [8BE066E6] (AR v2)
Copy OK

Track 8

Filename L:\alexbras\1972 Zephyr - Sunset Ride (2000 One Way OW 35170)\08 Chasing Clouds.wav

Pre-gap length 0:00:01.45

Peak level 98.8 %
Extraction speed 7.5 X
Track quality 100.0 %
Test CRC 89B1F3A1
Copy CRC 89B1F3A1
Accurately ripped (confidence 2) [D3D99965] (AR v2)
Copy OK

Track 9

Filename L:\alexbras\1972 Zephyr - Sunset Ride (2000 One Way OW 35170)\09 Sunset Ride.wav

Peak level 85.7 %
Extraction speed 7.7 X
Track quality 100.0 %
Test CRC CF30DD0F
Copy CRC CF30DD0F
Accurately ripped (confidence 2) [83AA0D56] (AR v2)
Copy OK

Track 10

Filename L:\alexbras\1972 Zephyr - Sunset Ride (2000 One Way OW 35170)\10 Winter Always Finds Me.wav

Peak level 98.8 %
Extraction speed 8.5 X
Track quality 100.0 %
Test CRC 2DB7072D
Copy CRC 2DB7072D
Accurately ripped (confidence 2) [482D5F17] (AR v2)
Copy OK


All tracks accurately ripped

No errors occurred

End of status report

==== Log checksum C795866F4DD2721CBA9437F3A583F3336AC51ED24551FA37BC7E90ED8C449E8E ====

foobar2000 1.4 / Dynamic Range Meter 1.1.1
log date: 2019-10-16 10:50:15

––––––––––––––––––––––––––––––––––––––––
Analyzed: Zephyr / Sunset Ride
––––––––––––––––––––––––––––––––––––––––

DR Peak RMS Duration Track
––––––––––––––––––––––––––––––––––––––––
DR8 -0.10 dB -10.24 dB 5:19 01-I Am Not Surprised
DR8 -0.10 dB -9.53 dB 2:53 02-Someone To Chew
DR8 -0.10 dB -9.48 dB 3:38 03-High Flying Bird
DR10 -0.10 dB -11.35 dB 4:06 04-No Time Lonesome
DR6 -0.10 dB -8.33 dB 5:20 05-Moving Too Fast
DR7 -0.10 dB -8.68 dB 3:47 06-Sold My Heart
DR10 -0.10 dB -12.78 dB 3:10 07-Sierra Cowgirl
DR9 -0.10 dB -12.08 dB 4:07 08-Chasing Clouds
DR9 -1.33 dB -14.46 dB 3:47 09-Sunset Ride
DR9 -0.10 dB -11.63 dB 5:50 10-Winter Always Finds Me
––––––––––––––––––––––––––––––––––––––––

Number of tracks: 10
Official DR value: DR8

Samplerate: 44100 Hz
Channels: 2
Bits per sample: 16
Bitrate: 703 kbps
Codec: FLAC
================================================================================

[CUETools log; Date: 16.10.2019 10:49:32; Version: 2.1.6]
[CTDB TOCID: jfBJFJw_JV_Znpmy2lLKIfVimGE-] found.
Track | CTDB Status
1 | (5/5) Accurately ripped
2 | (5/5) Accurately ripped
3 | (5/5) Accurately ripped
4 | (5/5) Accurately ripped
5 | (5/5) Accurately ripped
6 | (5/5) Accurately ripped
7 | (5/5) Accurately ripped
8 | (5/5) Accurately ripped
9 | (5/5) Accurately ripped
10 | (4/5) Accurately ripped
[AccurateRip ID: 000f85cd-007bd4cf-8009d30a] found.
Track [ CRC | V2 ] Status
01 [01a494c9|ba67d988] (0+2/8) Accurately ripped
02 [21ba7a8a|ead623be] (0+2/8) Accurately ripped
03 [604db156|3efa052f] (0+2/8) Accurately ripped
04 [80f61a9b|ac3b1a0c] (0+2/8) Accurately ripped
05 [21922361|5155b8ab] (0+2/8) Accurately ripped
06 [7f3936d4|23ccec9b] (0+2/8) Accurately ripped
07 [4d64f94d|8be066e6] (0+2/8) Accurately ripped
08 [db1f54a4|d3d99965] (0+2/8) Accurately ripped
09 [1abaf7cd|83aa0d56] (0+2/8) Accurately ripped
10 [702e0c0d|482d5f17] (0+2/7) Accurately ripped
Offsetted by 664:
01 [015f1a89] (2/8) Accurately ripped
02 [ec9eeb1a] (2/8) Accurately ripped
03 [2e9ac106] (2/8) Accurately ripped
04 [3b23027b] (2/8) Accurately ripped
05 [cc2779a9] (2/8) Accurately ripped
06 [22246544] (2/8) Accurately ripped
07 [00a75955] (2/8) Accurately ripped
08 [6adfe206] (2/8) Accurately ripped
09 [8a7c1ce1] (2/8) Accurately ripped
10 [2cb9c496] (2/7) Accurately ripped

Track Peak [ CRC32 ] [W/O NULL] [ LOG ]
– 98,8 [F5B9FEA4] [35FE01F9]
01 98,8 [8CC7D153] [CC605B9E] CRC32
02 98,8 [4CFC8E19] [511A7F06] CRC32
03 98,8 [F6E4D22C] [0A43126E] CRC32
04 98,8 [59FF9A3E] [3AF417A9] CRC32
05 98,8 [B92841BA] [0E2D1DD7] CRC32
06 98,8 [27BAF751] [2C49FF68] CRC32
07 98,8 [57E92BB0] [3D02A3BD] CRC32
08 98,8 [89B1F3A1] [1B7C3B3C] CRC32
09 85,7 [CF30DD0F] [D28E5793] CRC32
10 98,8 [2DB7072D] [BF463E49] CRC32

Zephyr - Sunset Ride (1972) {2000, Remastered}


See also:

Zephyr - Sunset Ride (1972) {2007, Remastered}

All thanks go to alex1248

>>> My Blog <<<