Subcategories

Zior - Zior (1971) [Reissue 2006]

Posted By: Andi_Deris
Zior - Zior (1971) [Reissue 2006]

Zior - Zior (1971) [Reissue 2006]
EAC Rip | FLAC: Tracks+Cue+Log | 420 Mb | MP3 CBR 320 kbps | 177 Mb | Scans | Time: 01:12:39
Mason Records | MR 56455
Hard Rock, Heavy Prog, Psychedelic Rock

Reissue of early 70s UK heavy rock band's debut album from 1971 with 8 bonus tracks from their 1973 follow up, Every Inch A Man. Right away you notice the spooky artwork, which was created by the same artist who did the first Black Sabbath album.

Zior - Zior (1971) [Reissue 2006]




Zior - Zior (1971) [Reissue 2006]


Track Listing

01. I Really Do (3:00)
02. Za Za Za Zilda (2:38)
03. Love's Desire (4:02)
04. New Land (4:07)
05. Now I'm Sad (4:06)
06. Give Me Love (2:47)
07. Quabala (3:20)
08. Oh Mariya (3:22)
09. Your Life Will Burn (3:16)
10. I Was Fooling (3:07)
11. Before My Eyes Go Blind (3:27)
12. Rolling Thunder (3:08)

bonus tracks from "Every Inch A Man"
13. Didi Judi (2:52)
14. Evolution (3:37)
15. Cat's Eyes (2:57)
16. Strange Kind Of Magic (3:04)
17. Ride Me Baby (2:20)
18. Entrance Of The Devil (6:17)
19. Every Inch A Man (4:39)
20. Angel Of The Highway (6:33)

Produced by Bill Farley, Keith Bonsor & Keith Farley

The Band

• Keith Bonsor - vocals, keyboards, bass, flute
• Peter Brewer - drums, piano, harmonica
• Barry Skeels - bass, vocals
• John Truba - guitar, vocals

Notes

An obscure progressive/heavy rock group whose debut album has few memorable moments but has become quite collectable because of the label it's on.

Zior did have a reputation as a wild live band. They were heavily into Black Magic and Satanic Mass etc. They recorded an album on the Beacon label, later in 1971, which was credited to Monument, though in fact it featured all four members of Zior.


Exact Audio Copy V1.0 beta 1 from 15. November 2010

EAC extraction logfile from 16. April 2011, 21:09

Zior / Zior

Used drive : Optiarc DVD+-RW ND-3570A Adapter: 0 ID: 0

Read mode : Secure
Utilize accurate stream : Yes
Defeat audio cache : Yes
Make use of C2 pointers : No

Read offset correction : 48
Overread into Lead-In and Lead-Out : No
Fill up missing offset samples with silence : Yes
Delete leading and trailing silent blocks : No
Null samples used in CRC calculations : Yes
Used interface : Native Win32 interface for Win NT & 2000
Gap handling : Appended to previous track

Used output format : User Defined Encoder
Selected bitrate : 896 kBit/s
Quality : High
Add ID3 tag : No
Command line compressor : C:\Program Files\Exact Audio Copy\Flac\flac.exe
Additional command line options : -8 -V -T "ARTIST=%a" -T "TITLE=%t" -T "ALBUM=%g" -T "DATE=%y" -T "TRACKNUMBER=%n" -T "TOTALTRACKS=%x" -T "GENRE=%m" -T "ALBUMARTIST=%v" -T "ALBUM ARTIST=%v" -T "COMMENT=EAC V1.0 beta 1, Secure Mode, Test & Copy, AccurateRip


TOC of the extracted CD

Track | Start | Length | Start sector | End sector
––––––––––––––––––––––––––––-
1 | 0:00.00 | 3:00.43 | 0 | 13542
2 | 3:00.43 | 2:38.15 | 13543 | 25407
3 | 5:38.58 | 4:02.06 | 25408 | 43563
4 | 9:40.64 | 4:07.56 | 43564 | 62144
5 | 13:48.45 | 4:06.69 | 62145 | 80663
6 | 17:55.39 | 2:47.06 | 80664 | 93194
7 | 20:42.45 | 3:20.15 | 93195 | 108209
8 | 24:02.60 | 3:22.25 | 108210 | 123384
9 | 27:25.10 | 3:16.30 | 123385 | 138114
10 | 30:41.40 | 3:07.69 | 138115 | 152208
11 | 33:49.34 | 3:27.46 | 152209 | 167779
12 | 37:17.05 | 3:08.26 | 167780 | 181905
13 | 40:25.31 | 2:52.42 | 181906 | 194847
14 | 43:17.73 | 3:37.67 | 194848 | 211189
15 | 46:55.65 | 2:57.48 | 211190 | 224512
16 | 49:53.38 | 3:04.46 | 224513 | 238358
17 | 52:58.09 | 2:20.15 | 238359 | 248873
18 | 55:18.24 | 6:17.12 | 248874 | 277160
19 | 61:35.36 | 4:39.05 | 277161 | 298090
20 | 66:14.41 | 6:33.23 | 298091 | 327588


Track 1

Filename H:\MY Music\EAC\01 - I Really Do.wav

Pre-gap length 0:00:02.00

Peak level 93.7 %
Extraction speed 4.4 X
Track quality 100.0 %
Test CRC BFDB5B1A
Copy CRC BFDB5B1A
Accurately ripped (confidence 2) [C474F8C3]
Copy OK

Track 2

Filename H:\MY Music\EAC\02 - Za Za Za Zilda.wav

Peak level 75.9 %
Extraction speed 4.6 X
Track quality 100.0 %
Test CRC D1879A59
Copy CRC D1879A59
Accurately ripped (confidence 2) [E9DC1128]
Copy OK

Track 3

Filename H:\MY Music\EAC\03 - Love's Desire.wav

Peak level 89.8 %
Extraction speed 4.4 X
Track quality 99.9 %
Test CRC 1B32D7AE
Copy CRC 1B32D7AE
Accurately ripped (confidence 2) [0E42B559]
Copy OK

Track 4

Filename H:\MY Music\EAC\04 - New Land.wav

Peak level 64.2 %
Extraction speed 5.7 X
Track quality 100.0 %
Test CRC 9171D702
Copy CRC 9171D702
Accurately ripped (confidence 2) [15146316]
Copy OK

Track 5

Filename H:\MY Music\EAC\05 - Now I'm Sad.wav

Peak level 71.7 %
Extraction speed 6.2 X
Track quality 100.0 %
Test CRC F76F464D
Copy CRC F76F464D
Accurately ripped (confidence 2) [3B3FBF6E]
Copy OK

Track 6

Filename H:\MY Music\EAC\06 - Give Me Love.wav

Peak level 82.4 %
Extraction speed 6.2 X
Track quality 100.0 %
Test CRC E0C442E5
Copy CRC E0C442E5
Accurately ripped (confidence 2) [F742350A]
Copy OK

Track 7

Filename H:\MY Music\EAC\07 - Quabala.wav

Peak level 83.0 %
Extraction speed 6.6 X
Track quality 100.0 %
Test CRC F07D1105
Copy CRC F07D1105
Accurately ripped (confidence 2) [2571ADA3]
Copy OK

Track 8

Filename H:\MY Music\EAC\08 - Oh Mariya.wav

Peak level 92.9 %
Extraction speed 6.9 X
Track quality 100.0 %
Test CRC 0AA435BA
Copy CRC 0AA435BA
Accurately ripped (confidence 2) [E6E10B03]
Copy OK

Track 9

Filename H:\MY Music\EAC\09 - Your Life Will Burn.wav

Peak level 79.2 %
Extraction speed 7.0 X
Track quality 100.0 %
Test CRC 4084A1DF
Copy CRC 4084A1DF
Accurately ripped (confidence 2) [A24AAD27]
Copy OK

Track 10

Filename H:\MY Music\EAC\10 - I Was Fooling.wav

Peak level 72.3 %
Extraction speed 7.1 X
Track quality 100.0 %
Test CRC 92E5166A
Copy CRC 92E5166A
Accurately ripped (confidence 2) [B8D77A40]
Copy OK

Track 11

Filename H:\MY Music\EAC\11 - Berore My Eyes Go Blind.wav

Peak level 99.9 %
Extraction speed 7.6 X
Track quality 100.0 %
Test CRC 69041C2D
Copy CRC 69041C2D
Accurately ripped (confidence 2) [8AACC4E7]
Copy OK

Track 12

Filename H:\MY Music\EAC\12 - Rolling Thunder.wav

Peak level 91.6 %
Extraction speed 7.7 X
Track quality 100.0 %
Test CRC 7CAB400B
Copy CRC 7CAB400B
Accurately ripped (confidence 2) [80AC1646]
Copy OK

Track 13

Filename H:\MY Music\EAC\13 - Didi Judi.wav

Peak level 99.9 %
Extraction speed 7.7 X
Track quality 100.0 %
Test CRC C4BF8D78
Copy CRC C4BF8D78
Accurately ripped (confidence 2) [584F44D2]
Copy OK

Track 14

Filename H:\MY Music\EAC\14 - Evolution.wav

Peak level 100.0 %
Extraction speed 8.0 X
Track quality 100.0 %
Test CRC 3434F508
Copy CRC 3434F508
Accurately ripped (confidence 2) [D791E798]
Copy OK

Track 15

Filename H:\MY Music\EAC\15 - Cat's Eyes.wav

Peak level 94.6 %
Extraction speed 6.2 X
Track quality 99.9 %
Test CRC 80776F38
Copy CRC 80776F38
Accurately ripped (confidence 2) [BD12BFB1]
Copy OK

Track 16

Filename H:\MY Music\EAC\16 - Strange Kind Of Magic.wav

Peak level 87.6 %
Extraction speed 6.5 X
Track quality 99.9 %
Test CRC 66BE1F99
Copy CRC 66BE1F99
Accurately ripped (confidence 2) [AB757954]
Copy OK

Track 17

Filename H:\MY Music\EAC\17 - Ride Me Baby.wav

Peak level 100.0 %
Extraction speed 8.0 X
Track quality 100.0 %
Test CRC D95F650D
Copy CRC D95F650D
Accurately ripped (confidence 2) [75CAA148]
Copy OK

Track 18

Filename H:\MY Music\EAC\18 - Entrance Of The Devil.wav

Peak level 100.0 %
Extraction speed 9.4 X
Track quality 100.0 %
Test CRC FD536626
Copy CRC FD536626
Accurately ripped (confidence 2) [9418806C]
Copy OK

Track 19

Filename H:\MY Music\EAC\19 - Every Inch A Man.wav

Peak level 100.0 %
Extraction speed 9.3 X
Track quality 100.0 %
Test CRC 2B66561B
Copy CRC 2B66561B
Accurately ripped (confidence 2) [05D09149]
Copy OK

Track 20

Filename H:\MY Music\EAC\20 - Angle Of The Highway.wav

Peak level 97.0 %
Extraction speed 5.0 X
Track quality 100.0 %
Test CRC 4FF6175E
Copy CRC 4FF6175E
Accurately ripped (confidence 2) [B0A0FC9A]
Copy OK


All tracks accurately ripped

No errors occurred

End of status report

==== Log checksum 6466A129C7A1935709B78DB5BE06D9911826450DC2C9ED23BD3451128C4B5994 ====


Many thanks to the original uploader: Zobmachine

SEE also:
Monument 1971 The First Monument [Reissue 1995]

Zior 1972 Every Inch A Man [Reissue 2003]