Subcategories

Zoo - Zoo (1969) [Reissue 2012]

Posted By: antonyart
Zoo - Zoo (1969) [Reissue 2012]

Zoo - Zoo (1969) [Reissue 2012]
EAC Rip | FLAC (IMG+CUE+LOG) | 262 MB | Complete HQ Scans 600 dpi JPG included | MP3 Lame 320 CBR | 92 MB
Genre: Jazz/Blues/Psychedelic Rock | RAR 5% Rec. | Label: Flawed Gems (GEM 82) | Uploaded, Depositfiles

This great debut album was originally released in 1969 by Riviera label and at the time was one of the earliest French rock records! LP consisted a powerful collection of largely instrumental jazz-blues-rock tracks with strong psychedelic and funk influences with electric guitars, Hammond organ, electric violin and saxophone parts being backed by very busy rhythm section and strong, soulful vocal of Joel Dayde. This twisted musical mixture is pretty hard to describe, but it should appeal to the fans of Electric Flag, early Funkadelic, Chicago Transit Authority, early Family and Larry Coryell. It's worth noting that popular US vinyl version released by Mercury Records in 1970 (with the same cover design) was a compilation of tracks from first two albums.
Zoo - Zoo (1969) [Reissue 2012]

Tracklist:

01. If You Lose Your Woman 04:12
02. Ramses 04:43
03. Bluezoo 05:43
04. Rhythm And Boss 04:45
05. Memphis Train 03:26
06. Samedi Soir A Carnouet 05:57
07. You Sure Drive A Hard Bargain 03:30
08. Mammouth 07:30

Total: 39:47

Exact Audio Copy V1.0 beta 3 from 29. August 2011

EAC extraction logfile from 2. December 2012, 13:36

Zoo / Zoo

Used drive : HL-DT-STDVDRAM GT34N Adapter: 0 ID: 2

Read mode : Secure
Utilize accurate stream : Yes
Defeat audio cache : Yes
Make use of C2 pointers : No

Read offset correction : 103
Overread into Lead-In and Lead-Out : No
Fill up missing offset samples with silence : Yes
Delete leading and trailing silent blocks : No
Null samples used in CRC calculations : Yes
Used interface : Native Win32 interface for Win NT & 2000

Used output format : User Defined Encoder
Selected bitrate : 896 kBit/s
Quality : High
Add ID3 tag : Yes
Command line compressor : C:\Program Files (x86)\Exact Audio Copy\FLAC\FLAC.EXE
Additional command line options : -6 -V -T "ARTIST=%artist%" -T "TITLE=%title%" -T "ALBUM=%albumtitle%" -T "DATE=%year%" -T "TRACKNUMBER=%tracknr%" -T "GENRE=%genre%" -T "COMMENT=%comment%" -T "BAND=%albuminterpret%" -T "ALBUMARTIST=%albuminterpret%" -T "COMPOSER=%composer%" %haslyrics%–tag-from-file=LYRICS="%lyricsfile%"%haslyrics% -T "DISCNUMBER=%cdnumber%" -T "TOTALDISCS=%totalcds%" -T "TOTALTRACKS=%numtracks%" %hascover%–picture="%coverfile%"%hascover% %source% -o %dest%


TOC of the extracted CD

Track | Start | Length | Start sector | End sector
––––––––––––––––––––––––––––-
1 | 0:00.00 | 4:11.58 | 0 | 18882
2 | 4:11.58 | 4:42.51 | 18883 | 40083
3 | 8:54.34 | 5:43.22 | 40084 | 65830
4 | 14:37.56 | 4:45.30 | 65831 | 87235
5 | 19:23.11 | 3:25.68 | 87236 | 102678
6 | 22:49.04 | 5:57.36 | 102679 | 129489
7 | 28:46.40 | 3:30.12 | 129490 | 145251
8 | 32:16.52 | 7:30.30 | 145252 | 179031


Range status and errors

Selected range

Filename D:\FLAC\ZOO -69- Zoo.wav

Peak level 100.0 %
Extraction speed 1.9 X
Range quality 99.9 %
Test CRC 4653B1EB
Copy CRC 4653B1EB
Copy OK

No errors occurred


AccurateRip summary

Track 1 not present in database
Track 2 not present in database
Track 3 not present in database
Track 4 not present in database
Track 5 not present in database
Track 6 not present in database
Track 7 not present in database
Track 8 not present in database

None of the tracks are present in the AccurateRip database

End of status report

==== Log checksum CBAA9C5DF86F8AE8E687527523BF947EC75D1B5FC566308115F4ED876506937A ====

foobar2000 1.1.9 / Dynamic Range Meter 1.1.1
log date: 2013-02-16 15:47:26

––––––––––––––––––––––––––––––––––––––––
Analyzed: Zoo / Zoo
––––––––––––––––––––––––––––––––––––––––

DR Peak RMS Duration Track
––––––––––––––––––––––––––––––––––––––––
DR10 -0.10 dB -11.00 dB 4:12 01-If You Lose Your Woman
DR9 -0.10 dB -10.01 dB 4:43 02-Ramses
DR11 0.00 dB -12.77 dB 5:43 03-Bluezoo
DR9 0.00 dB -10.04 dB 4:45 04-Rhythm And Boss
DR9 0.00 dB -10.40 dB 3:26 05-Memphis Train
DR9 -0.10 dB -10.56 dB 5:57 06-Samedi Soir A Carnouet
DR9 -0.10 dB -9.99 dB 3:30 07-You Sure Drive A Hard Bargain
DR10 -0.10 dB -11.18 dB 7:30 08-Mammouth
––––––––––––––––––––––––––––––––––––––––

Number of tracks: 8
Official DR value: DR9

Samplerate: 44100 Hz
Channels: 2
Bits per sample: 16
Bitrate: 873 kbps
Codec: FLAC
================================================================================

Vocalist Joel Dayde has a soulful sound, though about half the album is instrumental (Dayde would depart after this album). Instrumentation includes electric guitars, Hammond organ, electric violin (2 at times), sax, trumpet, bass, and drums. The opening track, If You Lose Your Woman, is a perfect example of this eclectic mix with a little drum break intro, before settling into an upbeat tempo with a lot of organ and even violins. There’s also the catchy instrumentals that follow such as Ramses with plenty of horns, the jazz influenced Rhythm And Boss, and the organ heavy Samedi Soir A Carnouet. Memphis Train features vocals and a funky rock sound with some nice horn accents and a bit of a Hendrix influence to it. The instrumental Mammouth is also pretty breaktastic at times, with some wicked and eerie organ sounds created by Andre Herve. Not essential, but one of the better albums to come out of France from this time period. Andre and Michel Herve later started the band ZOU (Zon Orchestra Unlimited) with their brothers Joel and Stephan. The violinist trombone player, Michel Ripoche, later issued two solo albums.

from ebay

Really nice artsy jazz rock, musically somewhere in between the Canterbury scene and the Mothers of Invention. Recommended!
Jazzy prog rock! Sounds similar to Syrius-Az ördög álarcosbálja "Devil's Masquerade"! Recommended!

from rateyourmusic

Zoo - Zoo (1969) [Reissue 2012]


This CD is from my personal collection. My original rip & my scan work.
>> here is my blog with all my rips <<
Please, do not mirror these links at any web pages.
FLAC + HQ 600 dpi complete scans:

Uploaded

Depositfiles

MP3 + 300 dpi front/back cover scans:

Uploaded

Depositfiles


Password: Ant