Tags
Language
Tags

Zucchero Sugar Fornaciari - Wanted (2017) {3CD Box Set}

Posted By: popsakov
Zucchero Sugar Fornaciari - Wanted (2017) {3CD Box Set}

Zucchero Sugar Fornaciari - Wanted (2017) {3CD Box Set}
EAC Rip | FLAC (Tracks) + Cue + m3u + Log ~ 1,54 Gb | MP3 CBR320 ~ 539 Mb
Scans Included | 03:40:59 | RAR 5% Recovery
Pop, Rock, Soul, Blues | Universal Music / Polydor / Lunisiana Soul D.O.C. #0602557964684

Adelmo Fornaciari Cavaliere di Gran Croce OMRI, more commonly known by his stage name Zucchero Fornaciari or simply Zucchero, is an Italian singer-songwriter and musician, with an Order of Merit of the Italian Republic. His stage name, Zucchero, is the Italian word for sugar, as his elementary teacher used to call him. His music is largely inspired by gospel, soul, blues and rock music, and alternates between Italian ballads and more rhythmic R&B-boogie-like pieces. He is credited as the "father of Italian blues", introducing blues to the big stage in Italy. He is one of the few European blues artists who still enjoy great international success.

In his career, spanning more than three decades, Fornaciari has sold over 60 million records around the world, and internationally his most successful singles are "Diamante", "Il Volo/My Love", "Baila (Sexy Thing)/Baila morena", and the duet "Senza una donna (Without a Woman)" with Paul Young. He has won numerous awards, including four Festivalbar, nine Wind Music Awards, two World Music Awards (1993, 1996), six IFPI Europe Platinum Awards, and a Grammy Award nomination. He has collaborated and performed with many famous artists, including Eric Clapton, Jeff Beck, Stevie Ray Vaughan, Brian May, Miles Davis, Ray Charles, B. B. King, Sting, Bono, Dolores O'Riordan, Paul Young, Peter Gabriel, Luciano Pavarotti, Andrea Bocelli.

***************

Zucchero Sugar Fornaciari - Wanted (2017) {3CD Box Set}

Track List CD1 - Best Of 85-90:

01. Overdose (D'amore) [5:22]
02. Con le mani [4:43]
03. Dune mosse [5:32]
04. Diamante [5:45]
05. Donne [3:35]
06. Non ti sopporto piщ [4:40]
07. Rispetto [5:05]
08. Hey man [4:30]
09. Come il sole all'improvviso [3:56]
10. Solo una sana e consapevole libidine salva il giovane dallo stress e dall'azi… [4:52]
11. Il mare impetuoso al tramonto salм sulla luna e dietro una tendina di stelle [3:56]
12. Un piccolo aiuto [3:30]
13. Senza una donna [4:27]
14. Madre dolcissima [7:18]
15. Diavolo in me [4:03]
16. Hai scelto me [2:26]

Exact Audio Copy V1.3 from 2. September 2016

EAC extraction logfile from 6. November 2017, 16:41

Zucchero Sugar Fornaciari / Wanted - The Best Collection (cd1)

Used drive : ASUS BC-12D2HT Adapter: 1 ID: 0

Read mode : Secure
Utilize accurate stream : Yes
Defeat audio cache : Yes
Make use of C2 pointers : No

Read offset correction : 6
Overread into Lead-In and Lead-Out : No
Fill up missing offset samples with silence : Yes
Delete leading and trailing silent blocks : No
Null samples used in CRC calculations : Yes
Used interface : Native Win32 interface for Win NT & 2000
Gap handling : Appended to previous track

Used output format : User Defined Encoder
Selected bitrate : 1024 kBit/s
Quality : High
Add ID3 tag : No
Command line compressor : C:\Program Files (x86)\Exact Audio Copy\FLAC\FLAC.EXE
Additional command line options : -8 -V -T "Artist=%artist%" -T "Title=%title%" -T "Album=%albumtitle%" -T "DATE=%year%" -T "TRACKNUMBER=%tracknr%" -T "Genre=%genre%" -T "ALBUMARTIST=%albumartist%" -T "ALBUM ARTIST=%albumartist%" -T "COMMENT=EAC Secure Mode, Test & Copy, AccurateRip, FLAC -8" %source%


TOC of the extracted CD

Track | Start | Length | Start sector | End sector
––––––––––––––––––––––––––––-
1 | 0:00.00 | 5:24.06 | 0 | 24305
2 | 5:24.06 | 4:45.05 | 24306 | 45685
3 | 10:09.11 | 5:34.00 | 45686 | 70735
4 | 15:43.11 | 5:47.74 | 70736 | 96834
5 | 21:31.10 | 3:37.12 | 96835 | 113121
6 | 25:08.22 | 4:42.25 | 113122 | 134296
7 | 29:50.47 | 5:06.56 | 134297 | 157302
8 | 34:57.28 | 4:32.40 | 157303 | 177742
9 | 39:29.68 | 3:58.01 | 177743 | 195593
10 | 43:27.69 | 4:54.04 | 195594 | 217647
11 | 48:21.73 | 3:58.70 | 217648 | 235567
12 | 52:20.68 | 3:31.43 | 235568 | 251435
13 | 55:52.36 | 4:28.53 | 251436 | 271588
14 | 60:21.14 | 7:19.37 | 271589 | 304550
15 | 67:40.51 | 4:05.19 | 304551 | 322944
16 | 71:45.70 | 2:26.32 | 322945 | 333926


Track 1

Filename C:\EAC\01. Zucchero Sugar Fornaciari - Overdose (D'amore).wav

Pre-gap length 0:00:02.00

Peak level 100.0 %
Extraction speed 4.1 X
Track quality 100.0 %
Test CRC F4047A33
Copy CRC F4047A33
Track not present in AccurateRip database
Copy OK

Track 2

Filename C:\EAC\02. Zucchero Sugar Fornaciari - Con le mani.wav

Pre-gap length 0:00:01.96

Peak level 100.0 %
Extraction speed 3.3 X
Track quality 100.0 %
Test CRC 5027E22B
Copy CRC 5027E22B
Track not present in AccurateRip database
Copy OK

Track 3

Filename C:\EAC\03. Zucchero Sugar Fornaciari - Dune mosse.wav

Pre-gap length 0:00:02.09

Peak level 100.0 %
Extraction speed 1.4 X
Track quality 99.9 %
Test CRC 48C5CE91
Copy CRC 48C5CE91
Track not present in AccurateRip database
Copy OK

Track 4

Filename C:\EAC\04. Zucchero Sugar Fornaciari - Diamante.wav

Pre-gap length 0:00:01.76

Peak level 99.9 %
Extraction speed 1.7 X
Track quality 100.0 %
Test CRC 57209B10
Copy CRC 57209B10
Track not present in AccurateRip database
Copy OK

Track 5

Filename C:\EAC\05. Zucchero Sugar Fornaciari - Donne.wav

Pre-gap length 0:00:02.68

Peak level 100.0 %
Extraction speed 1.7 X
Track quality 100.0 %
Test CRC F703E402
Copy CRC F703E402
Track not present in AccurateRip database
Copy OK

Track 6

Filename C:\EAC\06. Zucchero Sugar Fornaciari - Non ti sopporto più.wav

Pre-gap length 0:00:02.13

Peak level 94.3 %
Extraction speed 1.8 X
Track quality 100.0 %
Test CRC 61C49552
Copy CRC 61C49552
Track not present in AccurateRip database
Copy OK

Track 7

Filename C:\EAC\07. Zucchero Sugar Fornaciari - Rispetto.wav

Pre-gap length 0:00:02.46

Peak level 99.9 %
Extraction speed 1.7 X
Track quality 99.9 %
Test CRC C6485723
Copy CRC C6485723
Track not present in AccurateRip database
Copy OK

Track 8

Filename C:\EAC\08. Zucchero Sugar Fornaciari - Hey man.wav

Pre-gap length 0:00:02.17

Peak level 99.9 %
Extraction speed 2.0 X
Track quality 100.0 %
Test CRC EDF6769F
Copy CRC EDF6769F
Track not present in AccurateRip database
Copy OK

Track 9

Filename C:\EAC\09. Zucchero Sugar Fornaciari - Come il sole all'improvviso.wav

Pre-gap length 0:00:02.04

Peak level 99.9 %
Extraction speed 1.8 X
Track quality 99.9 %
Test CRC F0D73991
Copy CRC F0D73991
Track not present in AccurateRip database
Copy OK

Track 10

Filename C:\EAC\10. Zucchero Sugar Fornaciari - Solo una sana e consapevole libidine salva il giovane dallo stress e dall'azione cattolica.wav

Pre-gap length 0:00:01.96

Peak level 100.0 %
Extraction speed 2.2 X
Track quality 100.0 %
Test CRC DEEDB731
Copy CRC DEEDB731
Track not present in AccurateRip database
Copy OK

Track 11

Filename C:\EAC\11. Zucchero Sugar Fornaciari - Il mare impetuoso al tramonto salì sulla luna e dietro una tendina di stelle.wav

Pre-gap length 0:00:01.92

Peak level 99.9 %
Extraction speed 2.2 X
Track quality 100.0 %
Test CRC 0DDBC52B
Copy CRC 0DDBC52B
Track not present in AccurateRip database
Copy OK

Track 12

Filename C:\EAC\12. Zucchero Sugar Fornaciari - Un piccolo aiuto.wav

Pre-gap length 0:00:03.30

Peak level 94.3 %
Extraction speed 2.2 X
Track quality 100.0 %
Test CRC 52A0D73B
Copy CRC 52A0D73B
Track not present in AccurateRip database
Copy OK

Track 13

Filename C:\EAC\13. Zucchero Sugar Fornaciari - Senza una donna.wav

Pre-gap length 0:00:01.76

Peak level 100.0 %
Extraction speed 2.3 X
Track quality 100.0 %
Test CRC 9A7BFC4E
Copy CRC 9A7BFC4E
Track not present in AccurateRip database
Copy OK

Track 14

Filename C:\EAC\14. Zucchero Sugar Fornaciari - Madre dolcissima.wav

Pre-gap length 0:00:01.86

Peak level 99.9 %
Extraction speed 2.6 X
Track quality 100.0 %
Test CRC AE465946
Copy CRC AE465946
Track not present in AccurateRip database
Copy OK

Track 15

Filename C:\EAC\15. Zucchero Sugar Fornaciari - Diavolo in me.wav

Pre-gap length 0:00:01.76

Peak level 99.9 %
Extraction speed 2.5 X
Track quality 100.0 %
Test CRC 636631B4
Copy CRC 636631B4
Track not present in AccurateRip database
Copy OK

Track 16

Filename C:\EAC\16. Zucchero Sugar Fornaciari - Hai scelto me.wav

Pre-gap length 0:00:01.94

Peak level 99.9 %
Extraction speed 1.8 X
Track quality 99.9 %
Test CRC 86BC629D
Copy CRC 86BC629D
Track not present in AccurateRip database
Copy OK


None of the tracks are present in the AccurateRip database

No errors occurred

End of status report

–– CUETools DB Plugin V2.1.6

[CTDB TOCID: pJbqbtHsfwK6fN_9lgIk7f9aHXc-] found
Submit result: pJbqbtHsfwK6fN_9lgIk7f9aHXc- has been confirmed
Track | CTDB Status
1 | (1/1) Accurately ripped
2 | (1/1) Accurately ripped
3 | (1/1) Accurately ripped
4 | (1/1) Accurately ripped
5 | (1/1) Accurately ripped
6 | (1/1) Accurately ripped
7 | (1/1) Accurately ripped
8 | (1/1) Accurately ripped
9 | (1/1) Accurately ripped
10 | (1/1) Accurately ripped
11 | (1/1) Accurately ripped
12 | (1/1) Accurately ripped
13 | (1/1) Accurately ripped
14 | (1/1) Accurately ripped
15 | (1/1) Accurately ripped
16 | (1/1) Accurately ripped


==== Log checksum F25080AA4CAB082D41B4CC5E4CA88A7A0C9CDE27BFFDB18C9922C2BED55F410A ====

Track List CD2 - Best Of 90-05:

01. X colpa di chi? [3:15]
02. Baila (sexy thing) [4:07]
03. Indaco dagli occhi del cielo (feat. Vanessa Carlton) [3:58]
04. Il volo [4:19]
05. Blu [5:46]
06. Rossa mela della sera [5:05]
07. Menta e rosmarino [5:22]
08. Ahum [4:43]
09. Ridammi il sole [4:05]
10. Dindondio [4:27]
11. It's all right (La promessa) [5:28]
12. Puro amore [3:29]
13. Eccetera eccetera [5:30]
14. Scintille [5:15]
15. Cosм celeste (feat. New Orleans Gospel Choir) [4:51]
16. Miserere (feat. Luciano Pavarotti) [4:14]

Exact Audio Copy V1.3 from 2. September 2016

EAC extraction logfile from 6. November 2017, 19:25

Zucchero Sugar Fornaciari / Wanted - The Best Collection (cd2)

Used drive : ASUS BC-12D2HT Adapter: 0 ID: 0

Read mode : Secure
Utilize accurate stream : Yes
Defeat audio cache : Yes
Make use of C2 pointers : No

Read offset correction : 6
Overread into Lead-In and Lead-Out : No
Fill up missing offset samples with silence : Yes
Delete leading and trailing silent blocks : No
Null samples used in CRC calculations : Yes
Used interface : Installed external ASPI interface
Gap handling : Appended to previous track

Used output format : User Defined Encoder
Selected bitrate : 1024 kBit/s
Quality : High
Add ID3 tag : No
Command line compressor : C:\Program Files (x86)\Exact Audio Copy\FLAC\FLAC.EXE
Additional command line options : -8 -V -T "Artist=%artist%" -T "Title=%title%" -T "Album=%albumtitle%" -T "DATE=%year%" -T "TRACKNUMBER=%tracknr%" -T "Genre=%genre%" -T "ALBUMARTIST=%albumartist%" -T "ALBUM ARTIST=%albumartist%" -T "COMMENT=EAC Secure Mode, Test & Copy, AccurateRip, FLAC -8" %source%


TOC of the extracted CD

Track | Start | Length | Start sector | End sector
––––––––––––––––––––––––––––-
1 | 0:00.00 | 3:16.39 | 0 | 14738
2 | 3:16.39 | 4:08.57 | 14739 | 33395
3 | 7:25.21 | 3:59.69 | 33396 | 51389
4 | 11:25.15 | 4:21.27 | 51390 | 70991
5 | 15:46.42 | 5:48.18 | 70992 | 97109
6 | 21:34.60 | 5:07.43 | 97110 | 120177
7 | 26:42.28 | 5:23.46 | 120178 | 144448
8 | 32:05.74 | 4:44.37 | 144449 | 165785
9 | 36:50.36 | 4:07.05 | 165786 | 184315
10 | 40:57.41 | 4:29.05 | 184316 | 204495
11 | 45:26.46 | 5:29.41 | 204496 | 229211
12 | 50:56.12 | 3:31.00 | 229212 | 245036
13 | 54:27.12 | 5:31.42 | 245037 | 269903
14 | 59:58.54 | 5:16.55 | 269904 | 293658
15 | 65:15.34 | 4:52.43 | 293659 | 315601
16 | 70:08.02 | 4:14.07 | 315602 | 334658


Track 1

Filename C:\EAC\01. Zucchero Sugar Fornaciari - X colpa di chi.wav

Pre-gap length 0:00:02.00

Peak level 100.0 %
Extraction speed 2.4 X
Track quality 99.9 %
Test CRC CF1A2715
Copy CRC CF1A2715
Track not present in AccurateRip database
Copy OK

Track 2

Filename C:\EAC\02. Zucchero Sugar Fornaciari - Baila (sexy thing).wav

Pre-gap length 0:00:01.92

Peak level 99.9 %
Extraction speed 2.1 X
Track quality 100.0 %
Test CRC EF33D4DB
Copy CRC EF33D4DB
Track not present in AccurateRip database
Copy OK

Track 3

Filename C:\EAC\03. Zucchero Sugar Fornaciari - Indaco dagli occhi del cielo (feat. Vanessa Carlton).wav

Pre-gap length 0:00:01.90

Peak level 99.9 %
Extraction speed 1.4 X
Track quality 100.0 %
Test CRC D00E6C0D
Copy CRC D00E6C0D
Track not present in AccurateRip database
Copy OK

Track 4

Filename C:\EAC\04. Zucchero Sugar Fornaciari - Il volo.wav

Pre-gap length 0:00:02.04

Peak level 99.9 %
Extraction speed 1.5 X
Track quality 100.0 %
Test CRC FE78BEEF
Copy CRC FE78BEEF
Track not present in AccurateRip database
Copy OK

Track 5

Filename C:\EAC\05. Zucchero Sugar Fornaciari - Blu.wav

Pre-gap length 0:00:01.89

Peak level 99.9 %
Extraction speed 1.5 X
Track quality 99.9 %
Test CRC F2340174
Copy CRC F2340174
Track not present in AccurateRip database
Copy OK

Track 6

Filename C:\EAC\06. Zucchero Sugar Fornaciari - Rossa mela della sera.wav

Pre-gap length 0:00:02.06

Peak level 99.9 %
Extraction speed 1.8 X
Track quality 100.0 %
Test CRC 2DC9BD19
Copy CRC 2DC9BD19
Track not present in AccurateRip database
Copy OK

Track 7

Filename C:\EAC\07. Zucchero Sugar Fornaciari - Menta e rosmarino.wav

Pre-gap length 0:00:02.26

Peak level 99.9 %
Extraction speed 1.9 X
Track quality 100.0 %
Test CRC EC351ADE
Copy CRC EC351ADE
Track not present in AccurateRip database
Copy OK

Track 8

Filename C:\EAC\08. Zucchero Sugar Fornaciari - Ahum.wav

Pre-gap length 0:00:01.97

Peak level 99.9 %
Extraction speed 1.7 X
Track quality 99.9 %
Test CRC 4F3CD421
Copy CRC 4F3CD421
Track not present in AccurateRip database
Copy OK

Track 9

Filename C:\EAC\09. Zucchero Sugar Fornaciari - Ridammi il sole.wav

Pre-gap length 0:00:01.68

Peak level 99.9 %
Extraction speed 2.0 X
Track quality 100.0 %
Test CRC 5D8A63CB
Copy CRC 5D8A63CB
Track not present in AccurateRip database
Copy OK

Track 10

Filename C:\EAC\10. Zucchero Sugar Fornaciari - Dindondio.wav

Pre-gap length 0:00:01.76

Peak level 99.9 %
Extraction speed 2.1 X
Track quality 100.0 %
Test CRC BD459122
Copy CRC BD459122
Track not present in AccurateRip database
Copy OK

Track 11

Filename C:\EAC\11. Zucchero Sugar Fornaciari - It's all right (La promessa).wav

Pre-gap length 0:00:01.88

Peak level 99.9 %
Extraction speed 2.2 X
Track quality 100.0 %
Test CRC 1F44267F
Copy CRC 1F44267F
Track not present in AccurateRip database
Copy OK

Track 12

Filename C:\EAC\12. Zucchero Sugar Fornaciari - Puro amore.wav

Pre-gap length 0:00:01.76

Peak level 99.9 %
Extraction speed 2.2 X
Track quality 100.0 %
Test CRC BC5023E8
Copy CRC BC5023E8
Track not present in AccurateRip database
Copy OK

Track 13

Filename C:\EAC\13. Zucchero Sugar Fornaciari - Eccetera eccetera.wav

Pre-gap length 0:00:01.76

Peak level 99.9 %
Extraction speed 2.4 X
Track quality 100.0 %
Test CRC A566EFA3
Copy CRC A566EFA3
Track not present in AccurateRip database
Copy OK

Track 14

Filename C:\EAC\14. Zucchero Sugar Fornaciari - Scintille.wav

Pre-gap length 0:00:01.76

Peak level 99.9 %
Extraction speed 2.2 X
Track quality 99.9 %
Test CRC B936D0B2
Copy CRC B936D0B2
Track not present in AccurateRip database
Copy OK

Track 15

Filename C:\EAC\15. Zucchero Sugar Fornaciari - Così celeste (feat. New Orleans Gospel Choir).wav

Pre-gap length 0:00:01.76

Peak level 99.9 %
Extraction speed 2.5 X
Track quality 100.0 %
Test CRC 57B5316C
Copy CRC 57B5316C
Track not present in AccurateRip database
Copy OK

Track 16

Filename C:\EAC\16. Zucchero Sugar Fornaciari - Miserere (feat. Luciano Pavarotti).wav

Pre-gap length 0:00:01.76

Peak level 99.9 %
Extraction speed 2.5 X
Track quality 100.0 %
Test CRC C8A26623
Copy CRC C8A26623
Track not present in AccurateRip database
Copy OK


None of the tracks are present in the AccurateRip database

No errors occurred

End of status report

–– CUETools DB Plugin V2.1.6

[CTDB TOCID: QT_nJAoxKsTJfAm3XpEkLoOwZXA-] found
Submit result: QT_nJAoxKsTJfAm3XpEkLoOwZXA- has been confirmed
Track | CTDB Status
1 | (1/1) Accurately ripped
2 | (1/1) Accurately ripped
3 | (1/1) Accurately ripped
4 | (1/1) Accurately ripped
5 | (1/1) Accurately ripped
6 | (1/1) Accurately ripped
7 | (1/1) Accurately ripped
8 | (1/1) Accurately ripped
9 | (1/1) Accurately ripped
10 | (1/1) Accurately ripped
11 | (1/1) Accurately ripped
12 | (1/1) Accurately ripped
13 | (1/1) Accurately ripped
14 | (1/1) Accurately ripped
15 | (1/1) Accurately ripped
16 | (1/1) Accurately ripped


==== Log checksum 010514BF60E55F651425DEF551EC220C0F0ED8C382287267E27914520E377F8C ====

Track List CD3 - Best Of 05-18:

01. Un'altra storia (Brand New Track) [4:29]
02. Allora canto (Brand New Track) [3:19]
03. Speng the light (Brand New Track) [3:53]
04. Partigiano reggiano [3:00]
05. 13 buone ragioni [3:29]
06. Ci si arrende (feat. Mark Knopfler) [3:57]
07. Voci (Namanama Version) [3:47]
08. Vedo nero [3:54]
09. Chocabeck [4:42]
10. Occhi [3:39]
11. E' delicato [3:33]
12. Love is all around [4:06]
13. E' un peccato morir [3:42]
14. Un kilo [3:33]
15. Alla fine [3:44]
16. Bacco perbacco [3:57]
17. Amen [4:01]
18. Un soffio caldo [5:02]
19. Il suono della domenica [3:37]

Exact Audio Copy V1.3 from 2. September 2016

EAC extraction logfile from 6. November 2017, 20:58

Zucchero Sugar Fornaciari / Wanted - The Best Collection (cd3)

Used drive : ASUS BC-12D2HT Adapter: 0 ID: 0

Read mode : Secure
Utilize accurate stream : Yes
Defeat audio cache : Yes
Make use of C2 pointers : No

Read offset correction : 6
Overread into Lead-In and Lead-Out : No
Fill up missing offset samples with silence : Yes
Delete leading and trailing silent blocks : No
Null samples used in CRC calculations : Yes
Used interface : Installed external ASPI interface
Gap handling : Appended to previous track

Used output format : User Defined Encoder
Selected bitrate : 1024 kBit/s
Quality : High
Add ID3 tag : No
Command line compressor : C:\Program Files (x86)\Exact Audio Copy\FLAC\FLAC.EXE
Additional command line options : -8 -V -T "Artist=%artist%" -T "Title=%title%" -T "Album=%albumtitle%" -T "DATE=%year%" -T "TRACKNUMBER=%tracknr%" -T "Genre=%genre%" -T "ALBUMARTIST=%albumartist%" -T "ALBUM ARTIST=%albumartist%" -T "COMMENT=EAC Secure Mode, Test & Copy, AccurateRip, FLAC -8" %source%


TOC of the extracted CD

Track | Start | Length | Start sector | End sector
––––––––––––––––––––––––––––-
1 | 0:00.00 | 4:30.34 | 0 | 20283
2 | 4:30.34 | 3:20.40 | 20284 | 35323
3 | 7:50.74 | 3:54.67 | 35324 | 52940
4 | 11:45.66 | 3:01.68 | 52941 | 66583
5 | 14:47.59 | 3:31.11 | 66584 | 82419
6 | 18:18.70 | 3:59.12 | 82420 | 100356
7 | 22:18.07 | 3:48.50 | 100357 | 117506
8 | 26:06.57 | 3:55.47 | 117507 | 135178
9 | 30:02.29 | 4:44.13 | 135179 | 156491
10 | 34:46.42 | 3:41.12 | 156492 | 173078
11 | 38:27.54 | 3:34.40 | 173079 | 189168
12 | 42:02.19 | 4:07.43 | 189169 | 207736
13 | 46:09.62 | 3:43.58 | 207737 | 224519
14 | 49:53.45 | 3:34.24 | 224520 | 240593
15 | 53:27.69 | 3:45.22 | 240594 | 257490
16 | 57:13.16 | 3:59.18 | 257491 | 275433
17 | 61:12.34 | 4:04.08 | 275434 | 293741
18 | 65:16.42 | 5:04.08 | 293742 | 316549
19 | 70:20.50 | 3:36.40 | 316550 | 332789


Track 1

Filename C:\EAC\01. Zucchero Sugar Fornaciari - Un'altra storia (Brand New Track).wav

Pre-gap length 0:00:02.00

Peak level 98.8 %
Extraction speed 1.3 X
Track quality 100.0 %
Test CRC 5449F2FA
Copy CRC 5449F2FA
Track not present in AccurateRip database
Copy OK

Track 2

Filename C:\EAC\02. Zucchero Sugar Fornaciari - Allora canto (Brand New Track).wav

Pre-gap length 0:00:01.76

Peak level 99.9 %
Extraction speed 1.1 X
Track quality 99.9 %
Test CRC 9793CA86
Copy CRC 9793CA86
Track not present in AccurateRip database
Copy OK

Track 3

Filename C:\EAC\03. Zucchero Sugar Fornaciari - Speng the light (Brand New Track).wav

Pre-gap length 0:00:01.76

Peak level 99.9 %
Extraction speed 1.4 X
Track quality 100.0 %
Test CRC 4455E280
Copy CRC 4455E280
Track not present in AccurateRip database
Copy OK

Track 4

Filename C:\EAC\04. Zucchero Sugar Fornaciari - Partigiano reggiano.wav

Pre-gap length 0:00:01.76

Peak level 99.9 %
Extraction speed 1.2 X
Track quality 99.9 %
Test CRC EE85B11B
Copy CRC EE85B11B
Track not present in AccurateRip database
Copy OK

Track 5

Filename C:\EAC\05. Zucchero Sugar Fornaciari - 13 buone ragioni.wav

Pre-gap length 0:00:01.76

Peak level 99.9 %
Extraction speed 1.3 X
Track quality 99.9 %
Test CRC 042AA601
Copy CRC 042AA601
Track not present in AccurateRip database
Copy OK

Track 6

Filename C:\EAC\06. Zucchero Sugar Fornaciari - Ci si arrende (feat. Mark Knopfler).wav

Pre-gap length 0:00:01.76

Peak level 99.9 %
Extraction speed 1.6 X
Track quality 100.0 %
Test CRC 31F3DFE3
Copy CRC 31F3DFE3
Track not present in AccurateRip database
Copy OK

Track 7

Filename C:\EAC\07. Zucchero Sugar Fornaciari - Voci (Namanama Version).wav

Pre-gap length 0:00:01.88

Peak level 88.1 %
Extraction speed 1.7 X
Track quality 100.0 %
Test CRC D642800D
Copy CRC D642800D
Track not present in AccurateRip database
Copy OK

Track 8

Filename C:\EAC\08. Zucchero Sugar Fornaciari - Vedo nero.wav

Pre-gap length 0:00:01.76

Peak level 99.9 %
Extraction speed 1.8 X
Track quality 100.0 %
Test CRC A48D0962
Copy CRC A48D0962
Track not present in AccurateRip database
Copy OK

Track 9

Filename C:\EAC\09. Zucchero Sugar Fornaciari - Chocabeck.wav

Pre-gap length 0:00:01.76

Peak level 99.4 %
Extraction speed 1.7 X
Track quality 99.9 %
Test CRC E7FD66D9
Copy CRC E7FD66D9
Track not present in AccurateRip database
Copy OK

Track 10

Filename C:\EAC\10. Zucchero Sugar Fornaciari - Occhi.wav

Pre-gap length 0:00:01.76

Peak level 89.9 %
Extraction speed 1.9 X
Track quality 100.0 %
Test CRC 6DC830C8
Copy CRC 6DC830C8
Track not present in AccurateRip database
Copy OK

Track 11

Filename C:\EAC\11. Zucchero Sugar Fornaciari - E' delicato.wav

Pre-gap length 0:00:01.76

Peak level 77.0 %
Extraction speed 2.0 X
Track quality 100.0 %
Test CRC DB1C4C7B
Copy CRC DB1C4C7B
Track not present in AccurateRip database
Copy OK

Track 12

Filename C:\EAC\12. Zucchero Sugar Fornaciari - Love is all around.wav

Pre-gap length 0:00:01.76

Peak level 99.9 %
Extraction speed 2.1 X
Track quality 100.0 %
Test CRC 5574D0FC
Copy CRC 5574D0FC
Track not present in AccurateRip database
Copy OK

Track 13

Filename C:\EAC\13. Zucchero Sugar Fornaciari - E' un peccato morir.wav

Pre-gap length 0:00:01.76

Peak level 99.9 %
Extraction speed 1.8 X
Track quality 99.9 %
Test CRC C77E47D2
Copy CRC C77E47D2
Track not present in AccurateRip database
Copy OK

Track 14

Filename C:\EAC\14. Zucchero Sugar Fornaciari - Un kilo.wav

Pre-gap length 0:00:01.94

Peak level 99.9 %
Extraction speed 2.2 X
Track quality 100.0 %
Test CRC 62F3A8F1
Copy CRC 62F3A8F1
Track not present in AccurateRip database
Copy OK

Track 15

Filename C:\EAC\15. Zucchero Sugar Fornaciari - Alla fine.wav

Pre-gap length 0:00:01.76

Peak level 99.9 %
Extraction speed 2.3 X
Track quality 100.0 %
Test CRC 3E2FFEB5
Copy CRC 3E2FFEB5
Track not present in AccurateRip database
Copy OK

Track 16

Filename C:\EAC\16. Zucchero Sugar Fornaciari - Bacco perbacco.wav

Pre-gap length 0:00:01.76

Peak level 99.9 %
Extraction speed 2.3 X
Track quality 100.0 %
Test CRC CF56CB85
Copy CRC CF56CB85
Track not present in AccurateRip database
Copy OK

Track 17

Filename C:\EAC\17. Zucchero Sugar Fornaciari - Amen.wav

Pre-gap length 0:00:01.76

Peak level 99.9 %
Extraction speed 2.4 X
Track quality 100.0 %
Test CRC 82CB1952
Copy CRC 82CB1952
Track not present in AccurateRip database
Copy OK

Track 18

Filename C:\EAC\18. Zucchero Sugar Fornaciari - Un soffio caldo.wav

Pre-gap length 0:00:02.70

Peak level 99.9 %
Extraction speed 2.3 X
Track quality 99.9 %
Test CRC 0EA64783
Copy CRC 0EA64783
Track not present in AccurateRip database
Copy OK

Track 19

Filename C:\EAC\19. Zucchero Sugar Fornaciari - Il suono della domenica.wav

Pre-gap length 0:00:01.90

Peak level 99.9 %
Extraction speed 2.5 X
Track quality 100.0 %
Test CRC 2F89C989
Copy CRC 2F89C989
Track not present in AccurateRip database
Copy OK


None of the tracks are present in the AccurateRip database

No errors occurred

End of status report

–– CUETools DB Plugin V2.1.6

[CTDB TOCID: BjflzN9lV4QFusSnLfQoHrtzZP0-] disk not present in database
Submit result: BjflzN9lV4QFusSnLfQoHrtzZP0- has been uploaded


==== Log checksum 931B7E114023F91006F34C5D24A6C764F305AC4E41A37BAFB1227455CBEDF402 ====

Zucchero Sugar Fornaciari - Wanted (2017) {3CD Box Set}


See also:

Zucchero Sugar Fornaciari - All The Best (2007)

Zucchero - Black Cat (2016)

Zucchero Sugar Fornaciari - Black Cat: Deluxe Edition

All thanks go to the original ripper(s) …

>>> My Blog <<<

DOWNLOAD: