Subcategories

Acrimony/Church Of Misery - Split CD (2003) RESTORED

Posted By: Necromandus
Acrimony/Church Of Misery - Split CD (2003) RESTORED

Acrimony/Church Of Misery - Split CD (2003)
EAC Rip | FLAC, IMG+CUE+LOG | 350 MB | MP3 CBR 320 Kbps | 120 MB | Complete HQ Scans | PNG -> 30 MB
Stoner/Doom Metal | Label: Game Two Records #GT-25 | RAR 3% Rec. | FilePost

This CD is just plain awesome. People have been waiting 4 years to hear Acrimony's last tracks, and they don't disappoint. They were one of the best bands when Stoner Rock was first emerging as a genre. With Church of Misery you will not be able to avoid banging your head or tapping your toes when you hear it. The music is spectacular.

~ StonerRock.com
Tracklist :

1. Acrimony - Tumuli - 2:56
2. Acrimony - Satelite 19 - 3:30
3. Acrimony - In Other Wor(l)ds - 5:15
4. Acrimony - 100 New Gods - 6:02
5. Acrimony - Timebomb !!!! - 2:58
6. Church Of Misery - Race With The Devil - 3:48
7. Church Of Misery - Chilly Grave - 6:00
8. Church Of Misery - Cloud Bed - 7:21
9. Church Of Misery - Kingdom Scum - 7:12

Exact Audio Copy V0.99 prebeta 4 from 23. January 2008

EAC extraction logfile from 6. December 2008, 21:08

Acrimony / Bong On - Live Long!

Used drive : HP DVD Writer 1040d Adapter: 2 ID: 0

Read mode : Secure
Utilize accurate stream : Yes
Defeat audio cache : Yes
Make use of C2 pointers : No

Read offset correction : 6
Overread into Lead-In and Lead-Out : No
Fill up missing offset samples with silence : Yes
Delete leading and trailing silent blocks : No
Null samples used in CRC calculations : Yes
Used interface : Native Win32 interface for Win NT & 2000

Used output format : Monkey's Audio Lossless Encoder
Selected bitrate : High Lossless Compression
Quality : High
Add ID3 tag : Yes
Command line compressor : C:\Program Files\Monkey's Audio\MAC.exe


TOC of the extracted CD

Track | Start | Length | Start sector | End sector
––––––––––––––––––––––––––––-
1 | 0:00.00 | 7:05.37 | 0 | 31911
2 | 7:05.37 | 4:34.60 | 31912 | 52521
3 | 11:40.22 | 5:06.25 | 52522 | 75496
4 | 16:46.47 | 8:20.33 | 75497 | 113029
5 | 25:07.05 | 6:22.35 | 113030 | 141714
6 | 31:29.40 | 6:29.57 | 141715 | 170946
7 | 37:59.22 | 2:55.60 | 170947 | 184131
8 | 40:55.07 | 3:30.10 | 184132 | 199891
9 | 44:25.17 | 5:14.70 | 199892 | 223511
10 | 49:40.12 | 6:01.65 | 223512 | 250651
11 | 55:42.02 | 2:56.25 | 250652 | 263876


Range status and errors

Selected range

Filename C:\Documents and Settings\ibo\Мои документы\audio\Acrimony - 2007 - Bong on - Live Long!\Acrimony - Bong On - Live Long!.wav

Peak level 99.4 %
Range quality 100.0 %
Test CRC 529CEB96
Copy CRC 529CEB96
Copy OK

No errors occurred


AccurateRip summary

Track 1 not present in database
Track 2 not present in database
Track 3 not present in database
Track 4 not present in database
Track 5 not present in database
Track 6 not present in database
Track 7 not present in database
Track 8 not present in database
Track 9 not present in database
Track 10 not present in database
Track 11 not present in database

None of the tracks are present in the AccurateRip database

End of status report

–––––––––––-

DON'T MODIFY THIS FILE

–––––––––––-

PERFORMER: auCDtect Task Manager, ver. 1.5.1RC3 build 1.5.1.4
Copyright © 2008-2010 y-soft. All rights reserved
http://y-soft.org

ANALYZER: auCDtect: CD records authenticity detector, version 0.8.2
Copyright © 2004 Oleg Berngardt. All rights reserved.
Copyright © 2004 Alexander Djourik. All rights reserved.


FILE: Acrimony - Bong On - Live Long!.wav
Size: 620638748 Hash: AA8317CA5AAF9E0BA11BF09D403CB959 Accuracy: -m0
Conclusion: CDDA 100%
Signature: F344480F6558C855E9662402A3C106164A40DEA0

================================================================================
foobar2000 1.1.3 / Dynamic Range Meter 1.1.0
log date: 2012-08-30 20:25:03

––––––––––––––––––––––––––––––––––––––––
Analyzed: Acrimony / Bong On - Live Long!
––––––––––––––––––––––––––––––––––––––––

DR Peak RMS Duration Track
––––––––––––––––––––––––––––––––––––––––
DR5 -0.05 dB -6.98 dB 7:05 01-Spaced Cat #7 (hammond moon - bong mix)
DR5 -0.05 dB -6.25 dB 4:35 02-The Inn
DR6 -0.05 dB -7.05 dB 5:06 03-The Bud Song
DR5 -0.05 dB -6.10 dB 8:20 04-Fire - Dance (live from the planet Urbalaboom)
DR4 -0.05 dB -4.84 dB 6:22 05-Earthchild Inferno
DR4 -0.06 dB -4.76 dB 6:30 06-O Baby
DR3 -0.28 dB -3.64 dB 2:56 07-Tumuli
DR3 -0.16 dB -3.86 dB 3:30 08-Satellite 19
DR3 -0.07 dB -3.57 dB 5:15 09-In Other Wor(l)ds
DR3 -0.06 dB -4.20 dB 6:02 10-100 New Gods
DR3 -0.07 dB -3.82 dB 2:56 11-Timebomb!!!!
––––––––––––––––––––––––––––––––––––––––

Number of tracks: 11
Official DR value: DR4

Samplerate: 44100 Hz
Channels: 2
Bits per sample: 16
Bitrate: 1411 kbps
Codec: PCM
================================================================================

Tracks (1-5 by Acrimony) recorded in January 30th-31st, 1999 at Sonic 1, South Wales by Tim Hamill.
Tracks (6-9 by Church of Misery) recorded in 1996 at 'Los Angeles Club Studio', Tokyo by O-MI.

Acrimony are:
Mead - bass/Lee - drums/Stu - guitar/Daz - guitar/Dor - vocal
Church of Misery are:
Tatsu Mikami - bass/Hideki Shimizu - drums/Tomohiro Nishimura - guitar/Kazuhiro Asaeda - vocals


Please, do not write these links at any web pages. Enjoy & keep the files alive!
* - EAC Image, standard LOG, embedded cuesheet, Foobar2000 ready
In case you encounter some dead links, please leave the comment here or send me a private message!