Subcategories

Act - Love & Hate: A Compact Introduction To Act (2015) (Claudia Brücken And Thomas Leer) {2CD Set Salvo rec 1987-88}

Posted By: ruskaval
Act - Love & Hate: A Compact Introduction To Act (2015) (Claudia Brücken And Thomas Leer) {2CD Set Salvo rec 1987-88}

Act - Love & Hate: A Compact Introduction To Act (2015) (Claudia Brücken And Thomas Leer) {2CD Set Salvo rec 1987-88}
EAC rip (secure mode) | FLAC (tracks)+CUE+LOG -> 0.99 Gb | MP3 @320 -> 337 Mb
Full Artwork @ 300 dpi (jpg) -> 36 Mb | 5% repair rar
© 1987-88, 2015 ZTT Records / Salvo / Union Square Music | SALVOMDCD40
Synth Pop / New Wave / Dance Pop

Propaganda vocalist and latter day solo artist Claudia Brücken (A Secret Wish, Love: and a million other things…) teamed up in 1987 with electronic pioneer Thomas Leer (The Bridge, The Scale of Ten) to create Act: a one-off pop cabaret par excellence. Music so cutting edge, the sessions were documented by Tomorrow's World. And songs that crossed the chasm from mid-Eighties acts of sophistication to late-Eighties acts of dancefloor hedonism. Artwork includes previously unseen photographs of the duo by Patrick Lichfield.
Act - Love & Hate: A Compact Introduction To Act (2015) (Claudia Brücken And Thomas Leer) {2CD Set Salvo rec 1987-88}

I have a confession to make. I didn’t buy Act’s one and only album Laughter, Tears and Rage at the time (1988). A strange thing to do (or not to do), since I was a big fan of anything ZTT and I did pick up their first single, Snobbery & Decay, in ’cabaret-cassette’ guise. Thinking back, that was probably more to do with keeping my ZTT cassette single collection up-to-date that any massive desire to investigate the new ‘group’ formed by Propaganda’s Claudia Brücken and Scottish musician/songwriter Thomas Leer. As it happens, three out of the four tracks on that tape make an appearance on Love & Hate – A Compact Introduction to Act, a new two-CD set from Salvo/Union Square and ZTT.

Act have already been reissued for the 21st Century back in 2004, when the album was expanded comprehensively for the now out-of-print three-CD set which bore the same name as the original album. This was before the current ZTT ‘curator’ Ian Peel started working with the label and that release was certainly at odds with Peel’s recent archival strategy of relative restraint and themed releases (Frankie’s SexMix, Zambient One). The goal back in 2004 appeared to be to empty the archive completely, which is almost what they did (at least one track on Love & Hate is new-to-CD).
Act - Love & Hate: A Compact Introduction To Act (2015) (Claudia Brücken And Thomas Leer) {2CD Set Salvo rec 1987-88}

So the approach here is very much an artistic one. To look at the album from a new angle. As the sleeve notes remind us, what constitutes ‘the album’ is rather vague anyway, because the original CD had 14 tracks, the cassette had 12 and the humble vinyl made do with just ten. Would the true Laughter Tears and Rage please stand up?

The first disc of the new release is a self-styled ‘Director’s Cut’ of the album which includes all the tracks on the CD and a few more for good measure, jumbled up in a new running order. Whether all the mixes are identical is another matter, but apparently this is an actual track listing (or “album sequence”) compiled by ZTT Creative Director Paul Morley on 12 February 1988. So there you go. Morley’s original notes are included too where he characteristically describes the album as “a soundtrack to an imaginary film” and “an adventure in idealism and escapism”.

The second CD on Love & Hate is dubbed ‘Emotional 12” Versions’ and contains various mixes including the ‘Naked Civil Servant’ version of Snobbery & Decay. Despite its title there are some seven-inch mixes here, including Winner ’88 which I believe is the first time this track has appeared on CD.
Act - Love & Hate: A Compact Introduction To Act (2015) (Claudia Brücken And Thomas Leer) {2CD Set Salvo rec 1987-88}

I’ll be honest and say I wasn’t sure how much I’d enjoy the music, and after one listen it appeared that Stephen Lipson was propping up some average sounding songs with his layered and sometimes fussy production style, but perseverance was rewarded. With a running time of over 72 minutes it naturally struggles to be really consistent and some of the horn sounds are painfully cheesy (Gestures, I Can’t Escape From You) but the electro-funk of Body Electric is superb, the John Barry melancholy of Bloodrush beguiling, and the cover of I’d Be Surprisingly Good For You is much better than the the lounge bar version of The Smiths’ Heaven Knows I’m Miserable Now that was rightfully left off the original LP or cassette editions of Laughter, Tears and Rage.

Morley’s sequence was an interesting exercise that ultimately fails as a cohesive album and of course he would have known that it was never going to be feasible for a vinyl record. It seems at the time THREE compromises were made on MC, CD and LP. But if you’re going to reissue the album, his historical diary entry is a valid enough exercise in re-examination.

What Love & Hate does very well is to re-present the album, and the artist, intelligently and beautifully. The packaging and design is extremely appealing, bolstered by some amazing unseen photos of Claudia and Thomas by Patrick Litchfield. This release from Salvo is another example of how music is really enhanced when packaged well and presented with care. You simply don’t get that from a streaming playlist or a pile of MP3s dumped into your iTunes playlist and at less than £10 this is great value.
Act - Love & Hate: A Compact Introduction To Act (2015) (Claudia Brücken And Thomas Leer) {2CD Set Salvo rec 1987-88}


tracklist:
Act 1 - Laughter, Tears & Rage (The Directors Cut)

01 – Gestures
02 – The Third Planet
03 – Body Electric
04 – Laughter
05 – (Theme From) Snobbery & Decay
06 – Heaven Knows I’m Miserable Now
07 – Poison
08 – Bloodrush
09 – (We Give You Another) Chance
10 – I Can’t Escape From You
11 – Short Story (Thinker)
12 – I’d Be Surprisingly Good For You
13 – (Theme From) Laughter
14 – Absolutely Immune
15 – Chance
16 – Under The Nights Of Germany
17 – A Friendly Warning
18 – Certified
19 – Where Love Lies Bleeding
20 – Snobbery & Decay

Act - Love & Hate: A Compact Introduction To Act (2015) (Claudia Brücken And Thomas Leer) {2CD Set Salvo rec 1987-88}


Act 2 - Emotional 12" Versions Including …
01 – I Can’t Escape From You (Love & Hate)
02 – Chance (Full Whammy!)
03 – Winner ’88 (7")
04 – Laughter (7")
05 – Theme From I Can’t Escape From You
06 – States Of Logic
07 – Absolutely Immune I
08 – White Rabbit
09 – Absolutely Immune II
10 – The Naked Civil Snobbery & Decay
11 – Dear Life
12 – Snobbery & Decay (That’s Entertainment!)
13 – Certified (Instrumental)

Act - Love & Hate: A Compact Introduction To Act (2015) (Claudia Brücken And Thomas Leer) {2CD Set Salvo rec 1987-88}


Exact Audio Copy V1.0 beta 4 from 7. December 2014

EAC extraction logfile from 7. September 2015, 21:39

Act / Laughter,Tears & Rage [The Directors Cut] [CD1]

Used drive : MATSHITADVD-RAM UJ8D2Q Adapter: 1 ID: 0

Read mode : Secure
Utilize accurate stream : Yes
Defeat audio cache : Yes
Make use of C2 pointers : No

Read offset correction : 103
Overread into Lead-In and Lead-Out : No
Fill up missing offset samples with silence : Yes
Delete leading and trailing silent blocks : No
Null samples used in CRC calculations : Yes
Used interface : Native Win32 interface for Win NT & 2000
Gap handling : Appended to previous track

Used output format : User Defined Encoder
Selected bitrate : 896 kBit/s
Quality : High
Add ID3 tag : No
Command line compressor : C:\Program Files (x86)\Exact Audio Copy\Flac\flac.exe
Additional command line options : -8 -V -T "ARTIST=%artist%" -T "TITLE=%title%" -T "ALBUM=%albumtitle%" -T "DATE=%year%" -T "TRACKNUMBER=%tracknr%" -T "TOTALTRACKS=%numtracks%" -T "GENRE=%genre%" -T "ALBUMARTIST=%albumartist%" -T "ALBUM ARTIST=%albumartist%" -T "COMMENT=EAC Secure Mode, Test & Copy, AccurateRip, FLAC -8" %source%


TOC of the extracted CD

Track | Start | Length | Start sector | End sector
––––––––––––––––––––––––––––-
1 | 0:00.00 | 3:49.44 | 0 | 17218
2 | 3:49.44 | 4:22.45 | 17219 | 36913
3 | 8:12.14 | 3:44.31 | 36914 | 53744
4 | 11:56.45 | 3:58.01 | 53745 | 71595
5 | 15:54.46 | 0:53.60 | 71596 | 75630
6 | 16:48.31 | 3:52.65 | 75631 | 93095
7 | 20:41.21 | 3:55.26 | 93096 | 110746
8 | 24:36.47 | 4:11.07 | 110747 | 129578
9 | 28:47.54 | 4:20.20 | 129579 | 149098
10 | 33:07.74 | 3:08.32 | 149099 | 163230
11 | 36:16.31 | 0:35.39 | 163231 | 165894
12 | 36:51.70 | 4:09.72 | 165895 | 184641
13 | 41:01.67 | 1:07.32 | 184642 | 189698
14 | 42:09.24 | 4:36.16 | 189699 | 210414
15 | 46:45.40 | 4:09.68 | 210415 | 229157
16 | 50:55.33 | 4:30.74 | 229158 | 249481
17 | 55:26.32 | 3:24.28 | 249482 | 264809
18 | 58:50.60 | 4:27.69 | 264810 | 284903
19 | 63:18.54 | 3:19.54 | 284904 | 299882
20 | 66:38.33 | 5:02.74 | 299883 | 322606


Track 1

Filename C:\Users\paul\AppData\Local\VirtualStore\Program Files (x86)\Exact Audio Copy\Flac\01 - Gestures.wav

Pre-gap length 0:00:02.00

Peak level 97.7 %
Extraction speed 2.4 X
Track quality 100.0 %
Test CRC DB09545B
Copy CRC DB09545B
Accurately ripped (confidence 4) [594349C8] (AR v2)
Copy OK

Track 2

Filename C:\Users\paul\AppData\Local\VirtualStore\Program Files (x86)\Exact Audio Copy\Flac\02 - The Third Planet.wav

Pre-gap length 0:00:00.31

Peak level 97.7 %
Extraction speed 2.1 X
Track quality 99.9 %
Test CRC 05616F40
Copy CRC 05616F40
Accurately ripped (confidence 4) [EB9E807E] (AR v2)
Copy OK

Track 3

Filename C:\Users\paul\AppData\Local\VirtualStore\Program Files (x86)\Exact Audio Copy\Flac\03 - Body Electric.wav

Pre-gap length 0:00:00.41

Peak level 95.1 %
Extraction speed 2.1 X
Track quality 99.9 %
Test CRC 9FEB3544
Copy CRC 9FEB3544
Accurately ripped (confidence 4) [99E2D8AA] (AR v2)
Copy OK

Track 4

Filename C:\Users\paul\AppData\Local\VirtualStore\Program Files (x86)\Exact Audio Copy\Flac\04 - Laughter.wav

Pre-gap length 0:00:00.63

Peak level 97.7 %
Extraction speed 2.3 X
Track quality 99.9 %
Test CRC BCED83CE
Copy CRC BCED83CE
Accurately ripped (confidence 4) [6C1F93B1] (AR v2)
Copy OK

Track 5

Filename C:\Users\paul\AppData\Local\VirtualStore\Program Files (x86)\Exact Audio Copy\Flac\05 - Snobbery & Decay - Theme From…[extract].wav

Pre-gap length 0:00:00.24

Peak level 97.7 %
Extraction speed 2.1 X
Track quality 100.0 %
Test CRC 6FCBDDF2
Copy CRC 6FCBDDF2
Accurately ripped (confidence 4) [1DFBA17F] (AR v2)
Copy OK

Track 6

Filename C:\Users\paul\AppData\Local\VirtualStore\Program Files (x86)\Exact Audio Copy\Flac\06 - Heaven Knows I'm Miserable Now.wav

Pre-gap length 0:00:00.09

Peak level 97.7 %
Extraction speed 3.3 X
Track quality 100.0 %
Test CRC 8E2CF438
Copy CRC 8E2CF438
Accurately ripped (confidence 4) [A87B7F90] (AR v2)
Copy OK

Track 7

Filename C:\Users\paul\AppData\Local\VirtualStore\Program Files (x86)\Exact Audio Copy\Flac\07 - Poison.wav

Pre-gap length 0:00:01.32

Peak level 93.5 %
Extraction speed 2.6 X
Track quality 99.9 %
Test CRC 30F5AE49
Copy CRC 30F5AE49
Accurately ripped (confidence 4) [0B245223] (AR v2)
Copy OK

Track 8

Filename C:\Users\paul\AppData\Local\VirtualStore\Program Files (x86)\Exact Audio Copy\Flac\08 - Bloodrush.wav

Pre-gap length 0:00:01.17

Peak level 97.2 %
Extraction speed 3.7 X
Track quality 100.0 %
Test CRC 59DE0064
Copy CRC 59DE0064
Accurately ripped (confidence 3) [FDEE2176] (AR v2)
Copy OK

Track 9

Filename C:\Users\paul\AppData\Local\VirtualStore\Program Files (x86)\Exact Audio Copy\Flac\09 - (We Give You Another) Chance.wav

Pre-gap length 0:00:00.73

Peak level 97.7 %
Extraction speed 2.9 X
Track quality 99.9 %
Test CRC 68625D5C
Copy CRC 68625D5C
Accurately ripped (confidence 4) [F7436589] (AR v2)
Copy OK

Track 10

Filename C:\Users\paul\AppData\Local\VirtualStore\Program Files (x86)\Exact Audio Copy\Flac\10 - I Can't Escape From You.wav

Pre-gap length 0:00:00.67

Peak level 97.7 %
Extraction speed 3.8 X
Track quality 100.0 %
Test CRC ECA9A810
Copy CRC ECA9A810
Accurately ripped (confidence 4) [8CA255D1] (AR v2)
Copy OK

Track 11

Filename C:\Users\paul\AppData\Local\VirtualStore\Program Files (x86)\Exact Audio Copy\Flac\11 - Short Story.wav

Pre-gap length 0:00:00.70

Peak level 97.7 %
Extraction speed 0.9 X
Track quality 99.6 %
Test CRC D97F51A4
Copy CRC D97F51A4
Accurately ripped (confidence 4) [94D65C86] (AR v2)
Copy OK

Track 12

Filename C:\Users\paul\AppData\Local\VirtualStore\Program Files (x86)\Exact Audio Copy\Flac\12 - I'd Be Surprisingly Good For You.wav

Pre-gap length 0:00:01.50

Peak level 97.7 %
Extraction speed 3.1 X
Track quality 99.9 %
Test CRC F5008919
Copy CRC F5008919
Accurately ripped (confidence 4) [27324BE8] (AR v2)
Copy OK

Track 13

Filename C:\Users\paul\AppData\Local\VirtualStore\Program Files (x86)\Exact Audio Copy\Flac\13 - Laughter - Theme From….wav

Pre-gap length 0:00:01.00

Peak level 89.9 %
Extraction speed 3.1 X
Track quality 100.0 %
Test CRC 36D38664
Copy CRC 36D38664
Accurately ripped (confidence 4) [C42881E5] (AR v2)
Copy OK

Track 14

Filename C:\Users\paul\AppData\Local\VirtualStore\Program Files (x86)\Exact Audio Copy\Flac\14 - Absolutely Immune.wav

Pre-gap length 0:00:00.06

Peak level 97.7 %
Extraction speed 3.3 X
Track quality 99.9 %
Test CRC D6FBF19F
Copy CRC D6FBF19F
Accurately ripped (confidence 4) [44F59654] (AR v2)
Copy OK

Track 15

Filename C:\Users\paul\AppData\Local\VirtualStore\Program Files (x86)\Exact Audio Copy\Flac\15 - Chance.wav

Pre-gap length 0:00:01.20

Peak level 97.7 %
Extraction speed 4.4 X
Track quality 100.0 %
Test CRC 5E478209
Copy CRC 5E478209
Accurately ripped (confidence 4) [01955C36] (AR v2)
Copy OK

Track 16

Filename C:\Users\paul\AppData\Local\VirtualStore\Program Files (x86)\Exact Audio Copy\Flac\16 - Under The Nights Of Germany.wav

Pre-gap length 0:00:01.50

Peak level 97.7 %
Extraction speed 4.6 X
Track quality 100.0 %
Test CRC 3CFA195C
Copy CRC 3CFA195C
Accurately ripped (confidence 4) [D233B02E] (AR v2)
Copy OK

Track 17

Filename C:\Users\paul\AppData\Local\VirtualStore\Program Files (x86)\Exact Audio Copy\Flac\17 - A Friendly Warning.wav

Pre-gap length 0:00:00.25

Peak level 97.7 %
Extraction speed 4.5 X
Track quality 100.0 %
Test CRC A1992C86
Copy CRC A1992C86
Accurately ripped (confidence 4) [925A85F7] (AR v2)
Copy OK

Track 18

Filename C:\Users\paul\AppData\Local\VirtualStore\Program Files (x86)\Exact Audio Copy\Flac\18 - Certified.wav

Pre-gap length 0:00:01.48

Peak level 93.6 %
Extraction speed 3.6 X
Track quality 99.9 %
Test CRC 71850063
Copy CRC 71850063
Accurately ripped (confidence 4) [38524FCF] (AR v2)
Copy OK

Track 19

Filename C:\Users\paul\AppData\Local\VirtualStore\Program Files (x86)\Exact Audio Copy\Flac\19 - Where Love Lies Bleeding.wav

Pre-gap length 0:00:01.34

Peak level 97.7 %
Extraction speed 4.7 X
Track quality 100.0 %
Test CRC 01964474
Copy CRC 01964474
Accurately ripped (confidence 4) [55855270] (AR v2)
Copy OK

Track 20

Filename C:\Users\paul\AppData\Local\VirtualStore\Program Files (x86)\Exact Audio Copy\Flac\20 - Snobbery & Decay.wav

Pre-gap length 0:00:00.32

Peak level 97.7 %
Extraction speed 5.1 X
Track quality 100.0 %
Test CRC D26717B2
Copy CRC D26717B2
Accurately ripped (confidence 4) [CC81ADF6] (AR v2)
Copy OK


All tracks accurately ripped

No errors occurred

End of status report

–– CUETools DB Plugin V2.1.4

[CTDB TOCID: WPf6Bd5zKkQ_AKpwbVQyp5DaGSw-] found
Submit result: WPf6Bd5zKkQ_AKpwbVQyp5DaGSw- has been confirmed
Track | CTDB Status
1 | (6/6) Accurately ripped
2 | (6/6) Accurately ripped
3 | (6/6) Accurately ripped
4 | (6/6) Accurately ripped
5 | (6/6) Accurately ripped
6 | (6/6) Accurately ripped
7 | (6/6) Accurately ripped
8 | (6/6) Accurately ripped
9 | (6/6) Accurately ripped
10 | (6/6) Accurately ripped
11 | (6/6) Accurately ripped
12 | (6/6) Accurately ripped
13 | (6/6) Accurately ripped
14 | (6/6) Accurately ripped
15 | (5/6) Accurately ripped
16 | (6/6) Accurately ripped
17 | (6/6) Accurately ripped
18 | (6/6) Accurately ripped
19 | (6/6) Accurately ripped
20 | (6/6) Accurately ripped


==== Log checksum 1712D673A238C5ACD04FCF37F3C20D996BBDF69952F7AB93EB4DF7B0EB343199 ====

Exact Audio Copy V1.0 beta 4 from 7. December 2014

EAC extraction logfile from 13. September 2015, 11:09

Act / Emotional 12 Inch Versions (CD2)

Used drive : MATSHITADVD-RAM UJ8D2Q Adapter: 1 ID: 0

Read mode : Secure
Utilize accurate stream : Yes
Defeat audio cache : Yes
Make use of C2 pointers : No

Read offset correction : 103
Overread into Lead-In and Lead-Out : No
Fill up missing offset samples with silence : Yes
Delete leading and trailing silent blocks : No
Null samples used in CRC calculations : Yes
Used interface : Native Win32 interface for Win NT & 2000
Gap handling : Appended to previous track

Used output format : User Defined Encoder
Selected bitrate : 896 kBit/s
Quality : High
Add ID3 tag : No
Command line compressor : C:\Program Files (x86)\Exact Audio Copy\Flac\flac.exe
Additional command line options : -8 -V -T "ARTIST=%artist%" -T "TITLE=%title%" -T "ALBUM=%albumtitle%" -T "DATE=%year%" -T "TRACKNUMBER=%tracknr%" -T "TOTALTRACKS=%numtracks%" -T "GENRE=%genre%" -T "ALBUMARTIST=%albumartist%" -T "ALBUM ARTIST=%albumartist%" -T "COMMENT=EAC Secure Mode, Test & Copy, AccurateRip, FLAC -8" %source%


TOC of the extracted CD

Track | Start | Length | Start sector | End sector
––––––––––––––––––––––––––––-
1 | 0:00.00 | 7:22.28 | 0 | 33177
2 | 7:22.28 | 8:01.37 | 33178 | 69289
3 | 15:23.65 | 3:28.03 | 69290 | 84892
4 | 18:51.68 | 3:48.57 | 84893 | 102049
5 | 22:40.50 | 3:04.63 | 102050 | 115912
6 | 25:45.38 | 5:05.51 | 115913 | 138838
7 | 30:51.14 | 6:15.71 | 138839 | 167034
8 | 37:07.10 | 2:31.16 | 167035 | 178375
9 | 39:38.26 | 5:37.28 | 178376 | 203678
10 | 45:15.54 | 8:52.51 | 203679 | 243629
11 | 54:08.30 | 3:18.51 | 243630 | 258530
12 | 57:27.06 | 9:48.39 | 258531 | 302669
13 | 67:15.45 | 4:26.41 | 302670 | 322660


Track 1

Filename C:\Users\paul\AppData\Local\VirtualStore\Program Files (x86)\Exact Audio Copy\Flac\01 - I Can't Escape From You [Love & Hate].wav

Pre-gap length 0:00:02.00

Peak level 94.3 %
Extraction speed 2.7 X
Track quality 100.0 %
Test CRC 7D732421
Copy CRC 7D732421
Accurately ripped (confidence 4) [27AD4566] (AR v2)
Copy OK

Track 2

Filename C:\Users\paul\AppData\Local\VirtualStore\Program Files (x86)\Exact Audio Copy\Flac\02 - Chance [Full Whammy!].wav

Pre-gap length 0:00:00.51

Peak level 97.7 %
Extraction speed 3.2 X
Track quality 100.0 %
Test CRC 7FD5440C
Copy CRC 7FD5440C
Accurately ripped (confidence 4) [2A3B6052] (AR v2)
Copy OK

Track 3

Filename C:\Users\paul\AppData\Local\VirtualStore\Program Files (x86)\Exact Audio Copy\Flac\03 - Winner '88 [Seven Inch Mix].wav

Pre-gap length 0:00:00.07

Peak level 95.5 %
Extraction speed 3.2 X
Track quality 100.0 %
Test CRC 54BC308A
Copy CRC 54BC308A
Accurately ripped (confidence 4) [6A345567] (AR v2)
Copy OK

Track 4

Filename C:\Users\paul\AppData\Local\VirtualStore\Program Files (x86)\Exact Audio Copy\Flac\04 - Laughter [Seven Inch Mix].wav

Pre-gap length 0:00:01.09

Peak level 97.6 %
Extraction speed 2.5 X
Track quality 99.9 %
Test CRC 581AF6AD
Copy CRC 581AF6AD
Accurately ripped (confidence 4) [63D79827] (AR v2)
Copy OK

Track 5

Filename C:\Users\paul\AppData\Local\VirtualStore\Program Files (x86)\Exact Audio Copy\Flac\05 - I Can't Escape From You [Theme From].wav

Pre-gap length 0:00:01.15

Peak level 83.9 %
Extraction speed 3.4 X
Track quality 100.0 %
Test CRC 17A1194C
Copy CRC 17A1194C
Accurately ripped (confidence 4) [B406702B] (AR v2)
Copy OK

Track 6

Filename C:\Users\paul\AppData\Local\VirtualStore\Program Files (x86)\Exact Audio Copy\Flac\06 - States of Logic.wav

Pre-gap length 0:00:01.28

Peak level 97.7 %
Extraction speed 3.8 X
Track quality 100.0 %
Test CRC 989F3FE4
Copy CRC 989F3FE4
Accurately ripped (confidence 4) [AB29BA75] (AR v2)
Copy OK

Track 7

Filename C:\Users\paul\AppData\Local\VirtualStore\Program Files (x86)\Exact Audio Copy\Flac\07 - Absolutely Immune .wav

Pre-gap length 0:00:01.48

Peak level 97.7 %
Extraction speed 4.1 X
Track quality 100.0 %
Test CRC B79C8B99
Copy CRC B79C8B99
Accurately ripped (confidence 4) [E935E430] (AR v2)
Copy OK

Track 8

Filename C:\Users\paul\AppData\Local\VirtualStore\Program Files (x86)\Exact Audio Copy\Flac\08 - White Rabbit.wav

Pre-gap length 0:00:02.05

Peak level 97.7 %
Extraction speed 3.7 X
Track quality 100.0 %
Test CRC 5E5BB636
Copy CRC 5E5BB636
Accurately ripped (confidence 4) [62DE0A1F] (AR v2)
Copy OK

Track 9

Filename C:\Users\paul\AppData\Local\VirtualStore\Program Files (x86)\Exact Audio Copy\Flac\09 - Absolutely Immune [II].wav

Pre-gap length 0:00:01.63

Peak level 93.3 %
Extraction speed 4.4 X
Track quality 100.0 %
Test CRC C20B2455
Copy CRC C20B2455
Accurately ripped (confidence 4) [9F50557B] (AR v2)
Copy OK

Track 10

Filename C:\Users\paul\AppData\Local\VirtualStore\Program Files (x86)\Exact Audio Copy\Flac\10 - Snobbery & Decay [The Naked Civil].wav

Pre-gap length 0:00:01.11

Peak level 89.1 %
Extraction speed 4.7 X
Track quality 100.0 %
Test CRC 1B37A79A
Copy CRC 1B37A79A
Accurately ripped (confidence 4) [EBBF4282] (AR v2)
Copy OK

Track 11

Filename C:\Users\paul\AppData\Local\VirtualStore\Program Files (x86)\Exact Audio Copy\Flac\11 - Dear Life.wav

Pre-gap length 0:00:00.48

Peak level 88.8 %
Extraction speed 4.4 X
Track quality 100.0 %
Test CRC F916D25D
Copy CRC F916D25D
Accurately ripped (confidence 4) [69F84A28] (AR v2)
Copy OK

Track 12

Filename C:\Users\paul\AppData\Local\VirtualStore\Program Files (x86)\Exact Audio Copy\Flac\12 - Snobbery and Decay [That's Entertainment!].wav

Pre-gap length 0:00:01.46

Peak level 93.0 %
Extraction speed 5.1 X
Track quality 100.0 %
Test CRC 5683E5FD
Copy CRC 5683E5FD
Accurately ripped (confidence 4) [AB6D783A] (AR v2)
Copy OK

Track 13

Filename C:\Users\paul\AppData\Local\VirtualStore\Program Files (x86)\Exact Audio Copy\Flac\13 - Certified [Instrumental].wav

Pre-gap length 0:00:01.35

Peak level 97.7 %
Extraction speed 5.0 X
Track quality 100.0 %
Test CRC 135305DD
Copy CRC 135305DD
Accurately ripped (confidence 4) [C72621D6] (AR v2)
Copy OK


All tracks accurately ripped

No errors occurred

End of status report

–– CUETools DB Plugin V2.1.4

[CTDB TOCID: cJFbfm1TDTA.Zqk_b_6Oy5Z33RQ-] found
Submit result: already submitted
Track | CTDB Status
1 | (7/7) Accurately ripped
2 | (7/7) Accurately ripped
3 | (7/7) Accurately ripped
4 | (7/7) Accurately ripped
5 | (7/7) Accurately ripped
6 | (7/7) Accurately ripped
7 | (7/7) Accurately ripped
8 | (7/7) Accurately ripped
9 | (7/7) Accurately ripped
10 | (7/7) Accurately ripped
11 | (7/7) Accurately ripped
12 | (7/7) Accurately ripped
13 | (7/7) Accurately ripped


==== Log checksum A8BA79B9979D16B17557B0FAC98AEEA5EB09258D1BA617796788404EF04C97A8 ====