Subcategories

Adam And The Ants - Kings Of The Wild Frontier (1980) {2CD 2016 Deluxe Edition Columbia-Sony Music 88875119742}

Posted By: ruskaval
Adam And The Ants - Kings Of The Wild Frontier (1980) {2CD 2016 Deluxe Edition Columbia-Sony Music 88875119742}

Adam And The Ants - Kings Of The Wild Frontier (1980) {2CD 2016 Deluxe Edition Columbia-Sony Music 88875119742}
EAC rip (secure mode) | FLAC (tracks)+CUE+LOG -> 954 Mb | MP3 @320 -> 324 Mb
Full Artwork @ 300 dpi (jpg) -> 40 Mb | 5% repair rar
© 1980, 2016 CBS / Columbia / Sony Music | 88875119742
Rock / New Wave / Pop / Alternative / Post Punk

Back in the ’80s, Adam Ant was a giant UK Pop star with ten top charting singles in the UK between 1980 and 1983. His second album, Kings Of The Wild Frontier, released in 1980 helped to start that historical run for Adam Ant. Curated and remastered by Adam Ant, this new Legacy edition includes the original 12 track UK album, B sides, previously unreleased studio demos and rough cuts, a previously unissued live recording and rarities all fully remastered from original tape by Adam Ant.
Adam And The Ants - Kings Of The Wild Frontier (1980) {2CD 2016 Deluxe Edition Columbia-Sony Music 88875119742}

In extensive liner notes Adam Ant tells us in his own words the story behind the record and the “band of brothers in musical arms, who came together in the studio in 1980 to create a bit of magic”.

The demise of the original Ants line up following the release of Dirk Wears White Sox in 1979 is well documented. What came next for Adam & The Ants Mark 2 was an altogether new approach that would result in one of the most important British records of all time.

Kings Of The Wild Frontier was the result of a fierce, determined and ultimately realised ambition to turn the music scene on its head, in Adam’s own words, “to be the best, in tune with and in line with no one”.

Adam And The Ants - Kings Of The Wild Frontier (1980) {2CD 2016 Deluxe Edition Columbia-Sony Music 88875119742}


By 1980, the aftermath of the glory days of punk loomed large and grey over Britain and popular culture. As Bowie and Bolan had done a decade earlier for the kids trying to shake off the disappointing hangover of their parents’ Swinging Sixties, Adam & The Ants threw off the old guard of black and grey and safety pins and sneer and remerged on to the music scene with an undefinable brand and sound all of their own. Ant music! ‘a new flavour’…‘a golden new royalty’…’music for a future age’.

The loss of his Ants and fan requests to ‘play the old stuff’ proved the catalyst for change. Adam Ant says “everything till then had been black and white…from now on there had to be colour, dash and fire … heroism’…‘we felt like heroes and here was the soundtrack to make others feel the same”.

Three decades on and the heroic Kings Of The Wild Frontier remains as bold and magnificent as ever.
Adam And The Ants - Kings Of The Wild Frontier (1980) {2CD 2016 Deluxe Edition Columbia-Sony Music 88875119742}


Personnel:
Adam and the Ants

Adam Ant – vocals, acoustic guitar, piano, harmonica
Marco Pirroni – electric guitar
Kevin Mooney – bass
Merrick (Chris Hughes) – drums, production
Terry Lee Miall – drums

tracklist:
Disc One

01. Dog Eat Dog
02. Antmusic
03. Feed Me To The Lions
04. Los Rancheros
05. Ants Invasion
06. Killer In The Home
07. Kings Of The Wild Frontier
08. The Magnificent Five
09. Don’t Be Square Be There
10. Jolly Roger
11. Making History
12. The Human Beings

13. Press Darlings (B Side)
14. Physical (You’re So) (B Side)
15. Fall In (B Side)

16. Don’t Be Square (Be There) (KPM Studio Demo)*
17. The Human Beings (KPM Studio Demo)*
18. Los Rancheros (KPM Studio Demo)*
19. Making History (KPM Studio Demo)*

All Tracks Fully Remastered By Adam Ant & Walter Coelho
*Tracks 16-19 Previously Unreleased.


Adam And The Ants - Kings Of The Wild Frontier (1980) {2CD 2016 Deluxe Edition Columbia-Sony Music 88875119742}


Disc Two
Adam & The Ants Live In Chicago 1981*

01. The Human Beings [live]
02. Dog Eat Dog [live]
03. The Magnificent Five [live]
04. Don’t Be Square Be There [live]
05. Los Rancheros
06. Ants Invasion [live]
07. Killer In The Home [live]
08. Cleopatra [live]
09. Press Darlings [live]
10. Kick! [live]
11. Antmusic [live]
12. Beat My Guest [live]
13. Jolly Roger [live]
14. Zerox [live]
15. Car Trouble [live]
16. Kings Of The Wild Frontier [live]
17. Physical (You’re So) [live]

18. A.N.T.S.
19. Antmusic (Rough Cut)**
20. Don’t Be Square Be There (Rough Cut)**

All Tracks Mastered By Adam Ant & Walter Coelho
*Tracks 1-17 Previously Unissued On CD
**Tracks 19 And 20 Previously Unreleased.


Adam And The Ants - Kings Of The Wild Frontier (1980) {2CD 2016 Deluxe Edition Columbia-Sony Music 88875119742}


Exact Audio Copy V1.0 beta 4 from 7. December 2014

EAC extraction logfile from 21. May 2016, 11:49

Adam & The Ants / Kings Of The Wild Frontier (Deluxe Edition)

Used drive : MATSHITADVD-RAM UJ8D2Q Adapter: 1 ID: 0

Read mode : Secure
Utilize accurate stream : Yes
Defeat audio cache : Yes
Make use of C2 pointers : No

Read offset correction : 103
Overread into Lead-In and Lead-Out : No
Fill up missing offset samples with silence : Yes
Delete leading and trailing silent blocks : No
Null samples used in CRC calculations : Yes
Used interface : Native Win32 interface for Win NT & 2000
Gap handling : Appended to previous track

Used output format : User Defined Encoder
Selected bitrate : 896 kBit/s
Quality : High
Add ID3 tag : No
Command line compressor : C:\Program Files (x86)\Exact Audio Copy\Flac\flac.exe
Additional command line options : -8 -V -T "ARTIST=%artist%" -T "TITLE=%title%" -T "ALBUM=%albumtitle%" -T "DATE=%year%" -T "TRACKNUMBER=%tracknr%" -T "TOTALTRACKS=%numtracks%" -T "GENRE=%genre%" -T "ALBUMARTIST=%albumartist%" -T "ALBUM ARTIST=%albumartist%" -T "COMMENT=EAC Secure Mode, Test & Copy, AccurateRip, FLAC -8" %source%


TOC of the extracted CD

Track | Start | Length | Start sector | End sector
––––––––––––––––––––––––––––-
1 | 0:00.00 | 3:10.60 | 0 | 14309
2 | 3:10.60 | 3:37.68 | 14310 | 30652
3 | 6:48.53 | 3:03.28 | 30653 | 44405
4 | 9:52.06 | 3:31.06 | 44406 | 60236
5 | 13:23.12 | 3:20.24 | 60237 | 75260
6 | 16:43.36 | 4:23.17 | 75261 | 95002
7 | 21:06.53 | 3:56.61 | 95003 | 112763
8 | 25:03.39 | 3:07.60 | 112764 | 126848
9 | 28:11.24 | 3:32.72 | 126849 | 142820
10 | 31:44.21 | 2:11.39 | 142821 | 152684
11 | 33:55.60 | 2:59.20 | 152685 | 166129
12 | 36:55.05 | 4:36.24 | 166130 | 186853
13 | 41:31.29 | 4:13.33 | 186854 | 205861
14 | 45:44.62 | 4:28.43 | 205862 | 226004
15 | 50:13.30 | 2:09.58 | 226005 | 235737
16 | 52:23.13 | 4:25.31 | 235738 | 255643
17 | 56:48.44 | 4:58.32 | 255644 | 278025
18 | 61:47.01 | 3:35.05 | 278026 | 294155
19 | 65:22.06 | 3:44.37 | 294156 | 310992


Track 1

Filename C:\Users\paul\AppData\Local\VirtualStore\Program Files (x86)\Exact Audio Copy\Flac\01 - Dog Eat Dog [Remastered].wav

Pre-gap length 0:00:02.00

Peak level 100.0 %
Extraction speed 2.4 X
Track quality 100.0 %
Test CRC 5C9BA212
Copy CRC 5C9BA212
Track not present in AccurateRip database
Copy OK

Track 2

Filename C:\Users\paul\AppData\Local\VirtualStore\Program Files (x86)\Exact Audio Copy\Flac\02 - Antmusic [Remastered].wav

Pre-gap length 0:00:00.46

Peak level 96.6 %
Extraction speed 1.1 X
Track quality 100.0 %
Test CRC 7B98A327
Copy CRC 7B98A327
Track not present in AccurateRip database
Copy OK

Track 3

Filename C:\Users\paul\AppData\Local\VirtualStore\Program Files (x86)\Exact Audio Copy\Flac\03 - Feed Me To The Lions [Remastered].wav

Pre-gap length 0:00:00.71

Peak level 100.0 %
Extraction speed 2.8 X
Track quality 100.0 %
Test CRC BC595490
Copy CRC BC595490
Track not present in AccurateRip database
Copy OK

Track 4

Filename C:\Users\paul\AppData\Local\VirtualStore\Program Files (x86)\Exact Audio Copy\Flac\04 - Los Rancheros [Remastered].wav

Pre-gap length 0:00:02.08

Peak level 98.0 %
Extraction speed 3.0 X
Track quality 100.0 %
Test CRC E4624779
Copy CRC E4624779
Track not present in AccurateRip database
Copy OK

Track 5

Filename C:\Users\paul\AppData\Local\VirtualStore\Program Files (x86)\Exact Audio Copy\Flac\05 - Ants Invasion [Remastered].wav

Pre-gap length 0:00:01.23

Peak level 100.0 %
Extraction speed 3.1 X
Track quality 100.0 %
Test CRC A56C4281
Copy CRC A56C4281
Track not present in AccurateRip database
Copy OK

Track 6

Filename C:\Users\paul\AppData\Local\VirtualStore\Program Files (x86)\Exact Audio Copy\Flac\06 - Killer In The Home [Remastered].wav

Peak level 100.0 %
Extraction speed 3.4 X
Track quality 100.0 %
Test CRC DAAD3052
Copy CRC DAAD3052
Track not present in AccurateRip database
Copy OK

Track 7

Filename C:\Users\paul\AppData\Local\VirtualStore\Program Files (x86)\Exact Audio Copy\Flac\07 - Kings Of The Wild Frontier [Remastered].wav

Pre-gap length 0:00:01.67

Peak level 100.0 %
Extraction speed 3.6 X
Track quality 100.0 %
Test CRC 09846CA4
Copy CRC 09846CA4
Track not present in AccurateRip database
Copy OK

Track 8

Filename C:\Users\paul\AppData\Local\VirtualStore\Program Files (x86)\Exact Audio Copy\Flac\08 - The Magnificent Five [Remastered].wav

Pre-gap length 0:00:01.45

Peak level 100.0 %
Extraction speed 3.6 X
Track quality 100.0 %
Test CRC 9E4E2DC1
Copy CRC 9E4E2DC1
Track not present in AccurateRip database
Copy OK

Track 9

Filename C:\Users\paul\AppData\Local\VirtualStore\Program Files (x86)\Exact Audio Copy\Flac\09 - Don't Be Square (Be There) [Remastered].wav

Pre-gap length 0:00:01.38

Peak level 100.0 %
Extraction speed 3.8 X
Track quality 100.0 %
Test CRC 83C98B0C
Copy CRC 83C98B0C
Track not present in AccurateRip database
Copy OK

Track 10

Filename C:\Users\paul\AppData\Local\VirtualStore\Program Files (x86)\Exact Audio Copy\Flac\10 - Jolly Roger [Remastered].wav

Pre-gap length 0:00:01.18

Peak level 100.0 %
Extraction speed 3.6 X
Track quality 100.0 %
Test CRC BDCAED8F
Copy CRC BDCAED8F
Track not present in AccurateRip database
Copy OK

Track 11

Filename C:\Users\paul\AppData\Local\VirtualStore\Program Files (x86)\Exact Audio Copy\Flac\11 - Making History [Remastered].wav

Pre-gap length 0:00:01.61

Peak level 100.0 %
Extraction speed 2.7 X
Track quality 99.9 %
Test CRC BC6D9FEC
Copy CRC BC6D9FEC
Track not present in AccurateRip database
Copy OK

Track 12

Filename C:\Users\paul\AppData\Local\VirtualStore\Program Files (x86)\Exact Audio Copy\Flac\12 - The Human Beings [Remastered].wav

Pre-gap length 0:00:01.67

Peak level 100.0 %
Extraction speed 4.3 X
Track quality 100.0 %
Test CRC 91E0119B
Copy CRC 91E0119B
Track not present in AccurateRip database
Copy OK

Track 13

Filename C:\Users\paul\AppData\Local\VirtualStore\Program Files (x86)\Exact Audio Copy\Flac\13 - Press Darlings [ Side Remastered].wav

Pre-gap length 0:00:04.66

Peak level 96.6 %
Extraction speed 4.3 X
Track quality 100.0 %
Test CRC 557E76A5
Copy CRC 557E76A5
Track not present in AccurateRip database
Copy OK

Track 14

Filename C:\Users\paul\AppData\Local\VirtualStore\Program Files (x86)\Exact Audio Copy\Flac\14 - Physical (You're So) [ Side Remastered].wav

Pre-gap length 0:00:01.66

Peak level 96.6 %
Extraction speed 3.4 X
Track quality 99.9 %
Test CRC 6F484706
Copy CRC 6F484706
Track not present in AccurateRip database
Copy OK

Track 15

Filename C:\Users\paul\AppData\Local\VirtualStore\Program Files (x86)\Exact Audio Copy\Flac\15 - Fall In [ Side Remastered].wav

Pre-gap length 0:00:01.61

Peak level 94.4 %
Extraction speed 2.6 X
Track quality 99.9 %
Test CRC 8A1F1710
Copy CRC 8A1F1710
Track not present in AccurateRip database
Copy OK

Track 16

Filename C:\Users\paul\AppData\Local\VirtualStore\Program Files (x86)\Exact Audio Copy\Flac\16 - Don't Be Square (Be There) [KPM Studio Demo].wav

Pre-gap length 0:00:01.61

Peak level 99.7 %
Extraction speed 4.1 X
Track quality 100.0 %
Test CRC 6171ECD2
Copy CRC 6171ECD2
Track not present in AccurateRip database
Copy OK

Track 17

Filename C:\Users\paul\AppData\Local\VirtualStore\Program Files (x86)\Exact Audio Copy\Flac\17 - The Human Beings [KPM Studio Demo].wav

Pre-gap length 0:00:01.62

Peak level 99.7 %
Extraction speed 4.8 X
Track quality 100.0 %
Test CRC ED96102E
Copy CRC ED96102E
Track not present in AccurateRip database
Copy OK

Track 18

Filename C:\Users\paul\AppData\Local\VirtualStore\Program Files (x86)\Exact Audio Copy\Flac\18 - Los Rancheros [KPM Studio Demo].wav

Pre-gap length 0:00:01.62

Peak level 99.7 %
Extraction speed 4.8 X
Track quality 100.0 %
Test CRC 3167A3C3
Copy CRC 3167A3C3
Track not present in AccurateRip database
Copy OK

Track 19

Filename C:\Users\paul\AppData\Local\VirtualStore\Program Files (x86)\Exact Audio Copy\Flac\19 - Making History [KPM Studio Demo].wav

Pre-gap length 0:00:01.64

Peak level 99.7 %
Extraction speed 5.1 X
Track quality 100.0 %
Test CRC 2FE135B6
Copy CRC 2FE135B6
Track not present in AccurateRip database
Copy OK


None of the tracks are present in the AccurateRip database

No errors occurred

End of status report

–– CUETools DB Plugin V2.1.4

[CTDB TOCID: L6QNB9gaiwyOecl1MXdzINV44VA-] found
Submit result: L6QNB9gaiwyOecl1MXdzINV44VA- has been uploaded
Track | CTDB Status
1 | (1/1) Accurately ripped
2 | (1/1) Accurately ripped
3 | (1/1) Accurately ripped
4 | (1/1) Accurately ripped
5 | (1/1) Accurately ripped
6 | (1/1) Accurately ripped
7 | (1/1) Accurately ripped
8 | (1/1) Accurately ripped
9 | (1/1) Accurately ripped
10 | (1/1) Accurately ripped
11 | (1/1) Accurately ripped
12 | (1/1) Accurately ripped
13 | (1/1) Accurately ripped
14 | (1/1) Accurately ripped
15 | (1/1) Accurately ripped
16 | (1/1) Accurately ripped
17 | (1/1) Accurately ripped
18 | (0/1) No match
19 | (1/1) Accurately ripped


==== Log checksum F968D95F88138CF3F3D25BAA6757CCDD92A03391B1A57BD692F117FE61DDA9C4 ====

Exact Audio Copy V1.0 beta 4 from 7. December 2014

EAC extraction logfile from 21. May 2016, 12:46

Adam & The Ants / Kings Of The Wild Frontier (Deluxe Edition CD2)

Used drive : MATSHITADVD-RAM UJ8D2Q Adapter: 1 ID: 0

Read mode : Secure
Utilize accurate stream : Yes
Defeat audio cache : Yes
Make use of C2 pointers : No

Read offset correction : 103
Overread into Lead-In and Lead-Out : No
Fill up missing offset samples with silence : Yes
Delete leading and trailing silent blocks : No
Null samples used in CRC calculations : Yes
Used interface : Native Win32 interface for Win NT & 2000
Gap handling : Appended to previous track

Used output format : User Defined Encoder
Selected bitrate : 896 kBit/s
Quality : High
Add ID3 tag : No
Command line compressor : C:\Program Files (x86)\Exact Audio Copy\Flac\flac.exe
Additional command line options : -8 -V -T "ARTIST=%artist%" -T "TITLE=%title%" -T "ALBUM=%albumtitle%" -T "DATE=%year%" -T "TRACKNUMBER=%tracknr%" -T "TOTALTRACKS=%numtracks%" -T "GENRE=%genre%" -T "ALBUMARTIST=%albumartist%" -T "ALBUM ARTIST=%albumartist%" -T "COMMENT=EAC Secure Mode, Test & Copy, AccurateRip, FLAC -8" %source%


TOC of the extracted CD

Track | Start | Length | Start sector | End sector
––––––––––––––––––––––––––––-
1 | 0:00.00 | 3:36.21 | 0 | 16220
2 | 3:36.21 | 3:14.74 | 16221 | 30844
3 | 6:51.20 | 3:03.30 | 30845 | 44599
4 | 9:54.50 | 3:20.35 | 44600 | 59634
5 | 13:15.10 | 3:33.39 | 59635 | 75648
6 | 16:48.49 | 3:12.73 | 75649 | 90121
7 | 20:01.47 | 4:15.60 | 90122 | 109306
8 | 24:17.32 | 2:54.61 | 109307 | 122417
9 | 27:12.18 | 3:47.18 | 122418 | 139460
10 | 30:59.36 | 1:55.59 | 139461 | 148144
11 | 32:55.20 | 3:14.42 | 148145 | 162736
12 | 36:09.62 | 3:04.13 | 162737 | 176549
13 | 39:14.00 | 2:11.41 | 176550 | 186415
14 | 41:25.41 | 3:11.05 | 186416 | 200745
15 | 44:36.46 | 3:21.03 | 200746 | 215823
16 | 47:57.49 | 4:33.72 | 215824 | 236370
17 | 52:31.46 | 5:24.60 | 236371 | 260730
18 | 57:56.31 | 3:31.65 | 260731 | 276620
19 | 61:28.21 | 3:26.50 | 276621 | 292120
20 | 64:54.71 | 3:54.67 | 292121 | 309737


Track 1

Filename C:\Users\paul\AppData\Local\VirtualStore\Program Files (x86)\Exact Audio Copy\Flac\01 - The Human Beings [Live].wav

Pre-gap length 0:00:02.00

Peak level 99.7 %
Extraction speed 2.4 X
Track quality 100.0 %
Test CRC C03999F1
Copy CRC C03999F1
Track not present in AccurateRip database
Copy OK

Track 2

Filename C:\Users\paul\AppData\Local\VirtualStore\Program Files (x86)\Exact Audio Copy\Flac\02 - Dog Eat Dog [Live].wav

Peak level 99.7 %
Extraction speed 2.6 X
Track quality 100.0 %
Test CRC 76D804DC
Copy CRC 76D804DC
Track not present in AccurateRip database
Copy OK

Track 3

Filename C:\Users\paul\AppData\Local\VirtualStore\Program Files (x86)\Exact Audio Copy\Flac\03 - The Magnificent Five [Live].wav

Peak level 100.0 %
Extraction speed 2.8 X
Track quality 100.0 %
Test CRC 2D3E50D2
Copy CRC 2D3E50D2
Track not present in AccurateRip database
Copy OK

Track 4

Filename C:\Users\paul\AppData\Local\VirtualStore\Program Files (x86)\Exact Audio Copy\Flac\04 - Don't Be Square (Be There) [Live].wav

Peak level 97.9 %
Extraction speed 2.9 X
Track quality 100.0 %
Test CRC E12A2884
Copy CRC E12A2884
Track not present in AccurateRip database
Copy OK

Track 5

Filename C:\Users\paul\AppData\Local\VirtualStore\Program Files (x86)\Exact Audio Copy\Flac\05 - Los Rancheros [Live].wav

Peak level 100.0 %
Extraction speed 3.2 X
Track quality 100.0 %
Test CRC A53BD694
Copy CRC A53BD694
Track not present in AccurateRip database
Copy OK

Track 6

Filename C:\Users\paul\AppData\Local\VirtualStore\Program Files (x86)\Exact Audio Copy\Flac\06 - Ants Invasion [Live].wav

Peak level 99.7 %
Extraction speed 3.2 X
Track quality 100.0 %
Test CRC 644BA533
Copy CRC 644BA533
Track not present in AccurateRip database
Copy OK

Track 7

Filename C:\Users\paul\AppData\Local\VirtualStore\Program Files (x86)\Exact Audio Copy\Flac\07 - Killer In The Home [Live].wav

Peak level 100.0 %
Extraction speed 3.5 X
Track quality 100.0 %
Test CRC C69F885A
Copy CRC C69F885A
Track not present in AccurateRip database
Copy OK

Track 8

Filename C:\Users\paul\AppData\Local\VirtualStore\Program Files (x86)\Exact Audio Copy\Flac\08 - Cleopatra [Live].wav

Peak level 100.0 %
Extraction speed 3.5 X
Track quality 100.0 %
Test CRC 8E80F1D5
Copy CRC 8E80F1D5
Track not present in AccurateRip database
Copy OK

Track 9

Filename C:\Users\paul\AppData\Local\VirtualStore\Program Files (x86)\Exact Audio Copy\Flac\09 - Press Darlings [Live].wav

Peak level 100.0 %
Extraction speed 3.7 X
Track quality 100.0 %
Test CRC 95DD0B87
Copy CRC 95DD0B87
Track not present in AccurateRip database
Copy OK

Track 10

Filename C:\Users\paul\AppData\Local\VirtualStore\Program Files (x86)\Exact Audio Copy\Flac\10 - Kick! [Live].wav

Peak level 100.0 %
Extraction speed 3.4 X
Track quality 100.0 %
Test CRC 7FC06F2B
Copy CRC 7FC06F2B
Track not present in AccurateRip database
Copy OK

Track 11

Filename C:\Users\paul\AppData\Local\VirtualStore\Program Files (x86)\Exact Audio Copy\Flac\11 - Antmusic [Live].wav

Peak level 99.7 %
Extraction speed 2.7 X
Track quality 99.9 %
Test CRC CA9C3C41
Copy CRC CA9C3C41
Track not present in AccurateRip database
Copy OK

Track 12

Filename C:\Users\paul\AppData\Local\VirtualStore\Program Files (x86)\Exact Audio Copy\Flac\12 - Beat My Guest [Live].wav

Peak level 100.0 %
Extraction speed 3.9 X
Track quality 100.0 %
Test CRC 96ACAC6C
Copy CRC 96ACAC6C
Track not present in AccurateRip database
Copy OK

Track 13

Filename C:\Users\paul\AppData\Local\VirtualStore\Program Files (x86)\Exact Audio Copy\Flac\13 - Jolly Roger [Live].wav

Peak level 100.0 %
Extraction speed 3.8 X
Track quality 100.0 %
Test CRC FBA64408
Copy CRC FBA64408
Track not present in AccurateRip database
Copy OK

Track 14

Filename C:\Users\paul\AppData\Local\VirtualStore\Program Files (x86)\Exact Audio Copy\Flac\14 - Zerox [Live].wav

Peak level 99.5 %
Extraction speed 4.1 X
Track quality 100.0 %
Test CRC 49E7D742
Copy CRC 49E7D742
Track not present in AccurateRip database
Copy OK

Track 15

Filename C:\Users\paul\AppData\Local\VirtualStore\Program Files (x86)\Exact Audio Copy\Flac\15 - Car Trouble [Live].wav

Peak level 89.1 %
Extraction speed 4.3 X
Track quality 100.0 %
Test CRC 1AA541B1
Copy CRC 1AA541B1
Track not present in AccurateRip database
Copy OK

Track 16

Filename C:\Users\paul\AppData\Local\VirtualStore\Program Files (x86)\Exact Audio Copy\Flac\16 - Kings Of The Wild Frontier [Live].wav

Peak level 100.0 %
Extraction speed 4.5 X
Track quality 100.0 %
Test CRC 7591909F
Copy CRC 7591909F
Track not present in AccurateRip database
Copy OK

Track 17

Filename C:\Users\paul\AppData\Local\VirtualStore\Program Files (x86)\Exact Audio Copy\Flac\17 - Physical (You're So) [Live].wav

Peak level 100.0 %
Extraction speed 4.9 X
Track quality 100.0 %
Test CRC 7335EBA5
Copy CRC 7335EBA5
Track not present in AccurateRip database
Copy OK

Track 18

Filename C:\Users\paul\AppData\Local\VirtualStore\Program Files (x86)\Exact Audio Copy\Flac\18 - A.N.T.S..wav

Pre-gap length 0:00:01.64

Peak level 99.7 %
Extraction speed 4.8 X
Track quality 100.0 %
Test CRC B5E3000E
Copy CRC B5E3000E
Track not present in AccurateRip database
Copy OK

Track 19

Filename C:\Users\paul\AppData\Local\VirtualStore\Program Files (x86)\Exact Audio Copy\Flac\19 - Antmusic [Final Rough Cut].wav

Pre-gap length 0:00:01.60

Peak level 100.0 %
Extraction speed 4.8 X
Track quality 100.0 %
Test CRC FBD1441C
Copy CRC FBD1441C
Track not present in AccurateRip database
Copy OK

Track 20

Filename C:\Users\paul\AppData\Local\VirtualStore\Program Files (x86)\Exact Audio Copy\Flac\20 - Don't Be Square (Be There) [Final Rough Cut].wav

Pre-gap length 0:00:01.63

Peak level 100.0 %
Extraction speed 5.0 X
Track quality 100.0 %
Test CRC F2C19F12
Copy CRC F2C19F12
Track not present in AccurateRip database
Copy OK


None of the tracks are present in the AccurateRip database

No errors occurred

End of status report

–– CUETools DB Plugin V2.1.4

[CTDB TOCID: ZD9FP6z4YmjOFBHUzVs7r_90R0c-] found
Submit result: ZD9FP6z4YmjOFBHUzVs7r_90R0c- has been confirmed
Track | CTDB Status
1 | (1/1) Accurately ripped
2 | (1/1) Accurately ripped
3 | (1/1) Accurately ripped
4 | (1/1) Accurately ripped
5 | (1/1) Accurately ripped
6 | (1/1) Accurately ripped
7 | (1/1) Accurately ripped
8 | (1/1) Accurately ripped
9 | (1/1) Accurately ripped
10 | (1/1) Accurately ripped
11 | (1/1) Accurately ripped
12 | (1/1) Accurately ripped
13 | (1/1) Accurately ripped
14 | (1/1) Accurately ripped
15 | (1/1) Accurately ripped
16 | (1/1) Accurately ripped
17 | (1/1) Accurately ripped
18 | (1/1) Accurately ripped
19 | (1/1) Accurately ripped
20 | (1/1) Accurately ripped


==== Log checksum 717B44B09D5CEE480D3845ADAEF0BD4D0DE4414F8B6C0FABB644C288E99F36B4 ====


Adam And The Ants - Kings Of The Wild Frontier (1980) {2CD 2016 Deluxe Edition Columbia-Sony Music 88875119742}


All thanks goes to the original releaser!