Subcategories

Adrian Gurvitz - Il Assassino (1980)

Posted By: Jansky
Adrian Gurvitz - Il Assassino (1980)

Adrian Gurvitz - Il Assassino (1980)
EAC Rip | FLAC, IMG + CUE, LOG | 278 MB | MP3 CBR 320 Kbps | 102 MB | Complete Scans | 10 MB
Rock, Pop | Label: Victor Entertainment Inc. | Catalog Number: VICP-61979 | RAR 3% Rec. | RS.com, DF.com


Tracklist:

01. Borrowed Beautiful
02. Seventeen
03. Movie Picture
04. Hit Man
05. Movie Picture Theme
06. She's in Command
07. New World
08. Crying to the Night
09. Heat

Personnel:
Lead Vocals by Adrian Gurvitz
Back vocals by Adrian Gurvitz and Paul Gurvitz
All song written by Adrian Gurvitz
Prod. by Adrian Gurvitz. Assisted by Paul Gurvitz

Adriangurvitz.com

Exact Audio Copy V0.99 prebeta 4 from 23. January 2008

EAC extraction logfile from 31. October 2008, 14:03

Adrian Gurvitz / Il Assassino

Used drive : LITE-ON LTR-52327S Adapter: 1 ID: 0

Read mode : Secure
Utilize accurate stream : Yes
Defeat audio cache : Yes
Make use of C2 pointers : Yes

Read offset correction : 0
Overread into Lead-In and Lead-Out : No
Fill up missing offset samples with silence : Yes
Delete leading and trailing silent blocks : No
Null samples used in CRC calculations : Yes
Used interface : Native Win32 interface for Win NT & 2000

Used output format : Internal WAV Routines
Sample format : 44.100 Hz; 16 Bit; Stereo


TOC of the extracted CD

Track | Start | Length | Start sector | End sector
––––––––––––––––––––––––––––-
1 | 0:00.00 | 5:56.63 | 0 | 26762
2 | 5:56.63 | 4:29.25 | 26763 | 46962
3 | 10:26.13 | 5:07.67 | 46963 | 70054
4 | 15:34.05 | 5:05.05 | 70055 | 92934
5 | 20:39.10 | 0:42.63 | 92935 | 96147
6 | 21:21.73 | 6:15.52 | 96148 | 124324
7 | 27:37.50 | 4:24.25 | 124325 | 144149
8 | 32:02.00 | 5:34.63 | 144150 | 169262
9 | 37:36.63 | 3:48.25 | 169263 | 186387


Range status and errors

Selected range

Filename D:\NOT 2\Adrian Gurvitz - Il Assasino\Adrian Gurvitz - Il Assassino.wav

Peak level 99.9 %
Range quality 100.0 %
Copy CRC B39CA49B
Copy OK

No errors occurred

End of status report



Download Rapidshare:

in Lossless
flac.part1 | flac.part2 | flac.part3

MP3 lossy files
MP3

Download Depositfiles:

MP3 lossy files
MP3

Artwork
Covers

Don't post mirrors, please