Subcategories

Agnes Obel - Aventine (2013) {Play It Again Sam}

Posted By: shamanicus
Agnes Obel - Aventine (2013) {Play It Again Sam}

Agnes Obel - Aventine (2013)
XLD Rip | FLAC (tracks+.cue, log) | Covers | RAR | 211 mb
Indie Pop, Folk, Singer-Songwriter | Label: Play It Again Sam

Agnes Obel's pristine, delicate 2010 debut, Philharmonics, was an unexpected platinum-selling sensation in her home country of Denmark, and a hit throughout Europe. The sudden fame left her reeling, and on Aventine, the classically trained pianist/singer has tried to make sense of things. Accompanied mainly by a single cellist, she has created a quiet, watchful record - a response to having spent 18 months in "a blur" of touring.

The lyrics are impressionistic sketches (on Fuel to Fire, she sighs: "Roses on parade, they follow you round"), suggesting she saved the real firepower for the exquisite arrangements: sculpting strings and piano into beautifully melancholy ripples. Like Ane Brun and Seventh Tree-era Alison Goldfrapp, Obel is exceedingly good at conveying weariness and disorientation through sound: Run Cried the Crawling's pizzicato-plucked cello and otherworldly violin-swoops evoke the desolation of being awake at 3am, as do The Curse's precise droplets of strings and vocals. A wonderful autumn album.
theguardian.com


Tracklist:

01. Chord Left (2:29)
02. Fuel To Fire (5:29)
03. Dorian (4:48)
04. Aventine (4:08)
05. Run Cried The Crawling (4:26)
06. Tokka (1:30)
07. The Curse (5:53)
08. Pass Them By (3:31)
09. Words Are Dead (3:46)
10. Fivefold (1:59)
11. Smoke & Mirrors (2:57)

Agnes Obel - Aventine (2013) {Play It Again Sam}


X Lossless Decoder version 20130720 (144.0)

XLD extraction logfile from 2013-09-25 13:38:51 -0600

Agnes Obel / Aventine

Used drive : PIONEER DVD-RW DVR-112D (revision BC14)
Media type : Pressed CD

Ripper mode : XLD Secure Ripper
Disable audio cache : OK for the drive with a cache less than 1375KiB
Make use of C2 pointers : NO
Read offset correction : 48
Max retry count : 20
Gap status : Analyzed, Appended

TOC of the extracted CD
Track | Start | Length | Start sector | End sector
––––––––––––––––––––––––––––-
1 | 00:00:00 | 02:29:74 | 0 | 11248
2 | 02:29:74 | 05:29:61 | 11249 | 35984
3 | 07:59:60 | 04:48:26 | 35985 | 57610
4 | 12:48:11 | 04:08:30 | 57611 | 76240
5 | 16:56:41 | 04:26:40 | 76241 | 96230
6 | 21:23:06 | 01:30:18 | 96231 | 102998
7 | 22:53:24 | 05:53:21 | 102999 | 129494
8 | 28:46:45 | 03:31:53 | 129495 | 145372
9 | 32:18:23 | 03:46:43 | 145373 | 162365
10 | 36:04:66 | 01:59:11 | 162366 | 171301
11 | 38:04:02 | 02:57:41 | 171302 | 184617

AccurateRip Summary
Disc not found in AccurateRip DB.

All Tracks
Album gain : -7.30 dB
Peak : 0.988586
Statistics
Read error : 0
Jitter error (maybe fixed) : 0
Retry sector count : 0
Damaged sector count : 0

Track 01
Filename : /Volumes/fs 1/a/Agnes Obel/Agnes Obel - 2013 - Aventine [FLAC]/01 - Chord Left.flac
Pre-gap length : 00:02:00

Track gain : -5.73 dB
Peak : 0.988495
CRC32 hash (test run) : 9FEE9179
CRC32 hash : 9FEE9179
CRC32 hash (skip zero) : 97C6FB43
AccurateRip v1 signature : CC16FBFA
AccurateRip v2 signature : D593453A
->Track not present in AccurateRip database.
Statistics
Read error : 0
Jitter error (maybe fixed) : 0
Retry sector count : 0
Damaged sector count : 0

Track 02
Filename : /Volumes/fs 1/a/Agnes Obel/Agnes Obel - 2013 - Aventine [FLAC]/02 - Fuel to Fire.flac
Pre-gap length : 00:01:34

Track gain : -7.61 dB
Peak : 0.988586
CRC32 hash (test run) : 402D228D
CRC32 hash : 402D228D
CRC32 hash (skip zero) : 71554C70
AccurateRip v1 signature : 7CD560B4
AccurateRip v2 signature : B9FD803B
->Track not present in AccurateRip database.
Statistics
Read error : 0
Jitter error (maybe fixed) : 0
Retry sector count : 0
Damaged sector count : 0

Track 03
Filename : /Volumes/fs 1/a/Agnes Obel/Agnes Obel - 2013 - Aventine [FLAC]/03 - Dorian.flac
Pre-gap length : 00:01:58

Track gain : -8.04 dB
Peak : 0.988586
CRC32 hash (test run) : 7B5EC83C
CRC32 hash : 7B5EC83C
CRC32 hash (skip zero) : C8703492
AccurateRip v1 signature : A0772B08
AccurateRip v2 signature : E9FF099E
->Track not present in AccurateRip database.
Statistics
Read error : 0
Jitter error (maybe fixed) : 0
Retry sector count : 0
Damaged sector count : 0

Track 04
Filename : /Volumes/fs 1/a/Agnes Obel/Agnes Obel - 2013 - Aventine [FLAC]/04 - Aventine.flac
Pre-gap length : 00:02:02

Track gain : -7.25 dB
Peak : 0.988556
CRC32 hash (test run) : FFB51517
CRC32 hash : FFB51517
CRC32 hash (skip zero) : 8A51EEB2
AccurateRip v1 signature : 0F19F6C3
AccurateRip v2 signature : 7B68D47F
->Track not present in AccurateRip database.
Statistics
Read error : 0
Jitter error (maybe fixed) : 0
Retry sector count : 0
Damaged sector count : 0

Track 05
Filename : /Volumes/fs 1/a/Agnes Obel/Agnes Obel - 2013 - Aventine [FLAC]/05 - Run Cried The Crawling.flac
Pre-gap length : 00:02:27

Track gain : -6.85 dB
Peak : 0.988525
CRC32 hash (test run) : A4927041
CRC32 hash : A4927041
CRC32 hash (skip zero) : E3BF9E78
AccurateRip v1 signature : 55E29FA5
AccurateRip v2 signature : 7F3BE091
->Track not present in AccurateRip database.
Statistics
Read error : 0
Jitter error (maybe fixed) : 0
Retry sector count : 0
Damaged sector count : 0

Track 06
Filename : /Volumes/fs 1/a/Agnes Obel/Agnes Obel - 2013 - Aventine [FLAC]/06 - Tokka.flac
Pre-gap length : 00:02:32

Track gain : -4.26 dB
Peak : 0.988434
CRC32 hash (test run) : A6B4C73A
CRC32 hash : A6B4C73A
CRC32 hash (skip zero) : 69993219
AccurateRip v1 signature : 8ECD8159
AccurateRip v2 signature : 242C0CA8
->Track not present in AccurateRip database.
Statistics
Read error : 0
Jitter error (maybe fixed) : 0
Retry sector count : 0
Damaged sector count : 0

Track 07
Filename : /Volumes/fs 1/a/Agnes Obel/Agnes Obel - 2013 - Aventine [FLAC]/07 - The Curse.flac
Pre-gap length : 00:00:54

Track gain : -7.52 dB
Peak : 0.870972
CRC32 hash (test run) : 1AED178F
CRC32 hash : 1AED178F
CRC32 hash (skip zero) : E708829D
AccurateRip v1 signature : EE97F152
AccurateRip v2 signature : 1428F0AF
->Track not present in AccurateRip database.
Statistics
Read error : 0
Jitter error (maybe fixed) : 0
Retry sector count : 0
Damaged sector count : 0

Track 08
Filename : /Volumes/fs 1/a/Agnes Obel/Agnes Obel - 2013 - Aventine [FLAC]/08 - Pass Them By.flac
Pre-gap length : 00:02:09

Track gain : -7.04 dB
Peak : 0.988525
CRC32 hash (test run) : EC1C9264
CRC32 hash : EC1C9264
CRC32 hash (skip zero) : 9AD003AF
AccurateRip v1 signature : 893E6D71
AccurateRip v2 signature : 9D3090F7
->Track not present in AccurateRip database.
Statistics
Read error : 0
Jitter error (maybe fixed) : 0
Retry sector count : 0
Damaged sector count : 0

Track 09
Filename : /Volumes/fs 1/a/Agnes Obel/Agnes Obel - 2013 - Aventine [FLAC]/09 - Words Are Dead.flac
Pre-gap length : 00:02:14

Track gain : -8.07 dB
Peak : 0.988525
CRC32 hash (test run) : FC94188C
CRC32 hash : FC94188C
CRC32 hash (skip zero) : 48019DBC
AccurateRip v1 signature : E2F0EDAF
AccurateRip v2 signature : F0D43AE5
->Track not present in AccurateRip database.
Statistics
Read error : 0
Jitter error (maybe fixed) : 0
Retry sector count : 0
Damaged sector count : 0

Track 10
Filename : /Volumes/fs 1/a/Agnes Obel/Agnes Obel - 2013 - Aventine [FLAC]/10 - Fivefold.flac
Pre-gap length : 00:02:22

Track gain : -5.04 dB
Peak : 0.988464
CRC32 hash (test run) : 069432E6
CRC32 hash : 069432E6
CRC32 hash (skip zero) : 3D89F876
AccurateRip v1 signature : 2F610321
AccurateRip v2 signature : B6EDF6AF
->Track not present in AccurateRip database.
Statistics
Read error : 0
Jitter error (maybe fixed) : 0
Retry sector count : 0
Damaged sector count : 0

Track 11
Filename : /Volumes/fs 1/a/Agnes Obel/Agnes Obel - 2013 - Aventine [FLAC]/11 - Smoke & Mirrors.flac
Pre-gap length : 00:02:07

Track gain : -6.15 dB
Peak : 0.870941
CRC32 hash (test run) : 9AFEAE5F
CRC32 hash : 9AFEAE5F
CRC32 hash (skip zero) : 8BF5EECE
AccurateRip v1 signature : DFC7E1C3
AccurateRip v2 signature : D84E6414
->Track not present in AccurateRip database.
Statistics
Read error : 0
Jitter error (maybe fixed) : 0
Retry sector count : 0
Damaged sector count : 0

No errors occurred

End of status report


Thanks to the Original customer.