Subcategories

V.A. - Akis Panou 1967 - 1977 (1998)

Posted By: Speedyclick
V.A. - Akis Panou 1967 - 1977 (1998)

V.A. - Akis Panou 1967 - 1977 (1998)
EAC Rip | FLAC (image & cue & log) & mp3 @ 320 kbps | tracks: 12 | Scans | 35:18 | ~ 242 Mb & 113 Mb
Label: MINOS-EMI | 5% recovery record | Original recordings | Folk songs, bouzouki

Akis Panou was among the greatest songwriters of the greek musical pantheon. After he passed away in 2000, he left behind about 200 recorded songs, and more than 800 "in his drawer". This album contains 12 well known "masterpieces" of Akis Panou with singers like Vicky Mosholiou, Grigoris Bithikotsis, Manolis Mitsias, Stratos Dionysiou and many more. Enjoy a great album.

V.A. - Akis Panou 1967 - 1977 (1998)

TRACKLIST
01. Grigoris Bithikotsis - I'll close my eyes (Tha kliso ta matia)
02. Vicky Mosholiou - The first difficult moment (I proti diskoli stigmi)
03. Mihalis Menidiatis - I saw your eyes crying (Ida ta matia sou klamena)
04. Yiota Lydia - The greatest hour (I pio megali ora)
05. Stratos Dionysiou - I do everything (Ke ti den kano)
06. Vicky Mosholiou - I've drinked water from your hands (Pira ap' ta heria sou nero)
07. Grigoris Bithikotsis - My fate why you left me (Mira mou giati m' afises)
08. Akis Panou - I was right (Ego kala sou ta 'lega)
09. Stratos Dionysiou - I won't complain at all(Oute ah de tha po)
10. Litsa Diamanti - And then (Ke tote)
11. Tolis Voskopoulos - With any wind (Ti maistros ti vardaris)
12. Manolis Mitsias - The fool (O trelos)

Exact Audio Copy V1.0 beta 3 from 29. August 2011

EAC extraction logfile from 30. January 2013, 12:27

Άκης Πάνου / Συλλογή Δίφωνο, 32: Άκης Πάνου 1967-1977

Used drive : HL-DT-STDVDRAM GH10N Adapter: 1 ID: 1

Read mode : Secure
Utilize accurate stream : Yes
Defeat audio cache : Yes
Make use of C2 pointers : No

Read offset correction : 667
Overread into Lead-In and Lead-Out : No
Fill up missing offset samples with silence : Yes
Delete leading and trailing silent blocks : No
Null samples used in CRC calculations : Yes
Used interface : Native Win32 interface for Win NT & 2000

Used output format : User Defined Encoder
Selected bitrate : 1024 kBit/s
Quality : High
Add ID3 tag : Yes
Command line compressor : C:\Program Files\Exact Audio Copy New\Flac\flac.exe
Additional command line options : -V -5 -T "artist=%artist%" -T "title=%title%" -T "album=%albumtitle%" -T "tracknumber=%tracknr2%" -T "genre=%genre%" -5 %source%


TOC of the extracted CD

Track | Start | Length | Start sector | End sector
––––––––––––––––––––––––––––-
1 | 0:00.00 | 2:34.23 | 0 | 11572
2 | 2:34.23 | 2:45.70 | 11573 | 24017
3 | 5:20.18 | 2:59.74 | 24018 | 37516
4 | 8:20.17 | 2:58.01 | 37517 | 50867
5 | 11:18.18 | 3:21.72 | 50868 | 66014
6 | 14:40.15 | 3:25.49 | 66015 | 81438
7 | 18:05.64 | 2:48.35 | 81439 | 94073
8 | 20:54.24 | 2:38.25 | 94074 | 105948
9 | 23:32.49 | 2:27.13 | 105949 | 116986
10 | 25:59.62 | 2:54.64 | 116987 | 130100
11 | 28:54.51 | 3:23.31 | 130101 | 145356
12 | 32:18.07 | 3:00.36 | 145357 | 158892


Range status and errors

Selected range

Filename S:\MUSIC\From Mytog\ΔΙΦΩΝΟ\032 ΑΚΗΣ ΠΑΝΟΥ 1967-1977 (Flac)\Άκης Πάνου - Συλλογή Δίφωνο, 32- Άκης Πάνου 1967-1977.wav

Peak level 100.0 %
Extraction speed 2.7 X
Range quality 100.0 %
Test CRC 71D034F4
Copy CRC 71D034F4
Copy OK

No errors occurred


AccurateRip summary

Track 1 accurately ripped (confidence 1) [CCC817CD] (AR v1)
Track 2 accurately ripped (confidence 1) [92AFDA79] (AR v1)
Track 3 accurately ripped (confidence 1) [ECE77B1E] (AR v1)
Track 4 accurately ripped (confidence 1) [725621E5] (AR v1)
Track 5 accurately ripped (confidence 1) [1DEADD13] (AR v1)
Track 6 accurately ripped (confidence 1) [89008E3E] (AR v1)
Track 7 accurately ripped (confidence 1) [17DD6B53] (AR v1)
Track 8 accurately ripped (confidence 1) [EA94F397] (AR v1)
Track 9 accurately ripped (confidence 1) [2C0BB9B1] (AR v1)
Track 10 accurately ripped (confidence 1) [BFF54EF0] (AR v1)
Track 11 accurately ripped (confidence 1) [9B515A87] (AR v1)
Track 12 accurately ripped (confidence 1) [09105185] (AR v1)

All tracks accurately ripped

End of status report

–– CUETools DB Plugin V2.1.3

[CTDB TOCID: o9aZTLT4m78Gzn5wRfF4onlY_BA-] found, Submit result: o9aZTLT4m78Gzn5wRfF4onlY_BA- has been confirmed
[b817dbfa] (1/1) Accurately ripped


==== Log checksum 9D83F190AB454CF4B8FF352842599F84D7C8DD92DEC9AA9BC43EE3A65AD46C3C ====