Tags
Language
Tags

Al Di Meola - Across the Universe (2020)

Posted By: delpotro
Al Di Meola - Across the Universe (2020)

Al Di Meola - Across the Universe (2020)
XLD Rip | FLAC (tracks+log+.cue) | Artwork included | 01:01:54 | 411 Mb
Jazz Fusion | Label: earMUSIC

'Across The Universe' is a homage to The Beatles and their influence on generations of musicians and music lovers all over the world. You will enjoy the instantly recognizable Beatles melodies blended into the elaborated and unique style of one of the greatest jazz guitarists of our time. These recordings not only are means to pay tribute to the Beatles, whom Di Meola had admired since his teenage years, but also go back in time and capture all the moments that define him today as a man and guitarist who inspired generations of musicians. Di Meola invites his audience to accompany him on his very personal musical journey throughout his life. A life that has been accompanied by iconic Beatles songs like 'Hey Jude', 'Here Comes The Sun', 'Strawberry Fields Forever' and 'Yesterday'. 'Across The Universe' is a musical retrospective of Al Di Meola’s life, his music and his unique career of almost five decades.
Tracklist:
1. Here Comes the Sun (03:26)
2. Golden Slumber's Medley (06:17)
3. Dear Prudence (04:35)
4. Norwegian Wood (06:06)
5. Mother Nature's Son (04:01)
6. Strawberry Fields Forever (05:47)
7. Yesterday (05:09)
8. Your Mother Should Know (04:30)
9. Hey Jude (04:51)
10. I'll Follow the Sun (04:28)
11. Julia (04:42)
12. Till There Was You (04:37)
13. Here, There and Everywhere (02:31)
14. Octopus's Garden (00:46)

X Lossless Decoder version 20191004 (152.0)

XLD extraction logfile from 2020-03-15 14:26:17 -0400

Al Di Meola / Across the Universe

Used drive : HL-DT-ST DVDRW GS41N (revision UA04)
Media type : Pressed CD

Ripper mode : XLD Secure Ripper
Disable audio cache : OK for the drive with a cache less than 1375KiB
Make use of C2 pointers : NO
Read offset correction : 6
Max retry count : 20
Gap status : Analyzed, Appended (except HTOA)

TOC of the extracted CD
Track | Start | Length | Start sector | End sector
––––––––––––––––––––––––––––-
1 | 00:00:00 | 03:26:72 | 0 | 15521
2 | 03:26:72 | 06:17:55 | 15522 | 43851
3 | 09:44:52 | 04:35:18 | 43852 | 64494
4 | 14:19:70 | 06:06:25 | 64495 | 91969
5 | 20:26:20 | 04:01:42 | 91970 | 110086
6 | 24:27:62 | 05:47:08 | 110087 | 136119
7 | 30:14:70 | 05:09:53 | 136120 | 159347
8 | 35:24:48 | 04:30:68 | 159348 | 179665
9 | 39:55:41 | 04:51:28 | 179666 | 201518
10 | 44:46:69 | 04:28:69 | 201519 | 221687
11 | 49:15:63 | 04:42:67 | 221688 | 242904
12 | 53:58:55 | 04:37:53 | 242905 | 263732
13 | 58:36:33 | 02:31:15 | 263733 | 275072
14 | 61:07:48 | 00:46:27 | 275073 | 278549

AccurateRip Summary
Disc not found in AccurateRip DB.

All Tracks
Album gain : -8.62 dB
Peak : 0.944611
Statistics
Read error : 0
Jitter error (maybe fixed) : 0
Retry sector count : 0
Damaged sector count : 0

Track 01
Filename : /Users/jeffperry/Downloads/Al Di Meola - Across the Universe (2020) [FLAC]/01 - Al Di Meola - Here Comes the Sun.flac
Pre-gap length : 00:02:00

Track gain : -10.54 dB
Peak : 0.944519
CRC32 hash (test run) : A32A72BC
CRC32 hash : A32A72BC
CRC32 hash (skip zero) : B82BF34A
AccurateRip v1 signature : 814434A3
AccurateRip v2 signature : 10294C22
->Track not present in AccurateRip database.
Statistics
Read error : 0
Jitter error (maybe fixed) : 0
Retry sector count : 0
Damaged sector count : 0

Track 02
Filename : /Users/jeffperry/Downloads/Al Di Meola - Across the Universe (2020) [FLAC]/02 - Al Di Meola - Golden Slumbers.flac

Track gain : -9.88 dB
Peak : 0.944489
CRC32 hash (test run) : 260F853F
CRC32 hash : 260F853F
CRC32 hash (skip zero) : AC07C8BA
AccurateRip v1 signature : E8ACF0B9
AccurateRip v2 signature : 9C3E3B94
->Track not present in AccurateRip database.
Statistics
Read error : 0
Jitter error (maybe fixed) : 0
Retry sector count : 0
Damaged sector count : 0

Track 03
Filename : /Users/jeffperry/Downloads/Al Di Meola - Across the Universe (2020) [FLAC]/03 - Al Di Meola - Dear Prudence.flac

Track gain : -9.25 dB
Peak : 0.944550
CRC32 hash (test run) : 6DB76A7C
CRC32 hash : 6DB76A7C
CRC32 hash (skip zero) : 3EFC9A44
AccurateRip v1 signature : 5E6197B2
AccurateRip v2 signature : 40A06810
->Track not present in AccurateRip database.
Statistics
Read error : 0
Jitter error (maybe fixed) : 0
Retry sector count : 0
Damaged sector count : 0

Track 04
Filename : /Users/jeffperry/Downloads/Al Di Meola - Across the Universe (2020) [FLAC]/04 - Al Di Meola - Norwegian Wood.flac

Track gain : -9.66 dB
Peak : 0.944519
CRC32 hash (test run) : E958802A
CRC32 hash : E958802A
CRC32 hash (skip zero) : 29EDCC33
AccurateRip v1 signature : 9173E080
AccurateRip v2 signature : F4099ECC
->Track not present in AccurateRip database.
Statistics
Read error : 0
Jitter error (maybe fixed) : 0
Retry sector count : 0
Damaged sector count : 0

Track 05
Filename : /Users/jeffperry/Downloads/Al Di Meola - Across the Universe (2020) [FLAC]/05 - Al Di Meola - Mother Nature's Son.flac

Track gain : -7.80 dB
Peak : 0.944519
CRC32 hash (test run) : BC9EF12D
CRC32 hash : BC9EF12D
CRC32 hash (skip zero) : 522F8A05
AccurateRip v1 signature : C935B14B
AccurateRip v2 signature : 9DDB4A65
->Track not present in AccurateRip database.
Statistics
Read error : 0
Jitter error (maybe fixed) : 0
Retry sector count : 0
Damaged sector count : 0

Track 06
Filename : /Users/jeffperry/Downloads/Al Di Meola - Across the Universe (2020) [FLAC]/06 - Al Di Meola - Strawberry Fields Forever.flac

Track gain : -9.09 dB
Peak : 0.944611
CRC32 hash (test run) : DDDB70DA
CRC32 hash : DDDB70DA
CRC32 hash (skip zero) : DBAFEF07
AccurateRip v1 signature : C2E8B912
AccurateRip v2 signature : BDCAE1CD
->Track not present in AccurateRip database.
Statistics
Read error : 0
Jitter error (maybe fixed) : 0
Retry sector count : 0
Damaged sector count : 0

Track 07
Filename : /Users/jeffperry/Downloads/Al Di Meola - Across the Universe (2020) [FLAC]/07 - Al Di Meola - Yesterday.flac

Track gain : -5.30 dB
Peak : 0.944519
CRC32 hash (test run) : 748CB836
CRC32 hash : 748CB836
CRC32 hash (skip zero) : B6687940
AccurateRip v1 signature : 6DD48DCD
AccurateRip v2 signature : 3F4A605F
->Track not present in AccurateRip database.
Statistics
Read error : 0
Jitter error (maybe fixed) : 0
Retry sector count : 0
Damaged sector count : 0

Track 08
Filename : /Users/jeffperry/Downloads/Al Di Meola - Across the Universe (2020) [FLAC]/08 - Al Di Meola - Your Mother Should Know.flac

Track gain : -8.86 dB
Peak : 0.944489
CRC32 hash (test run) : AB44B838
CRC32 hash : AB44B838
CRC32 hash (skip zero) : AD7B24E1
AccurateRip v1 signature : 3990B6CF
AccurateRip v2 signature : 5083BB75
->Track not present in AccurateRip database.
Statistics
Read error : 0
Jitter error (maybe fixed) : 0
Retry sector count : 0
Damaged sector count : 0

Track 09
Filename : /Users/jeffperry/Downloads/Al Di Meola - Across the Universe (2020) [FLAC]/09 - Al Di Meola - Hey Jude.flac

Track gain : -8.01 dB
Peak : 0.944489
CRC32 hash (test run) : C50F5F18
CRC32 hash : C50F5F18
CRC32 hash (skip zero) : 192DFE30
AccurateRip v1 signature : D89DE9B3
AccurateRip v2 signature : 2D81B3ED
->Track not present in AccurateRip database.
Statistics
Read error : 0
Jitter error (maybe fixed) : 0
Retry sector count : 0
Damaged sector count : 0

Track 10
Filename : /Users/jeffperry/Downloads/Al Di Meola - Across the Universe (2020) [FLAC]/10 - Al Di Meola - I'll Follow the Sun.flac

Track gain : -7.29 dB
Peak : 0.944550
CRC32 hash (test run) : CDF22621
CRC32 hash : CDF22621
CRC32 hash (skip zero) : C432DE5E
AccurateRip v1 signature : C0977CE4
AccurateRip v2 signature : 7A4A3BD8
->Track not present in AccurateRip database.
Statistics
Read error : 0
Jitter error (maybe fixed) : 0
Retry sector count : 0
Damaged sector count : 0

Track 11
Filename : /Users/jeffperry/Downloads/Al Di Meola - Across the Universe (2020) [FLAC]/11 - Al Di Meola - Julia.flac

Track gain : -7.81 dB
Peak : 0.944519
CRC32 hash (test run) : C12702A6
CRC32 hash : C12702A6
CRC32 hash (skip zero) : 663AA484
AccurateRip v1 signature : 3A632A41
AccurateRip v2 signature : A2BE3486
->Track not present in AccurateRip database.
Statistics
Read error : 0
Jitter error (maybe fixed) : 0
Retry sector count : 0
Damaged sector count : 0

Track 12
Filename : /Users/jeffperry/Downloads/Al Di Meola - Across the Universe (2020) [FLAC]/12 - Al Di Meola - Till There Was You.flac

Track gain : -8.73 dB
Peak : 0.944489
CRC32 hash (test run) : C3D44F53
CRC32 hash : C3D44F53
CRC32 hash (skip zero) : 503E0324
AccurateRip v1 signature : EF9389E6
AccurateRip v2 signature : 2135C9FB
->Track not present in AccurateRip database.
Statistics
Read error : 0
Jitter error (maybe fixed) : 0
Retry sector count : 0
Damaged sector count : 0

Track 13
Filename : /Users/jeffperry/Downloads/Al Di Meola - Across the Universe (2020) [FLAC]/13 - Al Di Meola - Here, There and Everywhere.flac

Track gain : -3.25 dB
Peak : 0.944092
CRC32 hash (test run) : 795F66D0
CRC32 hash : 795F66D0
CRC32 hash (skip zero) : 31234818
AccurateRip v1 signature : 216AEBE2
AccurateRip v2 signature : 5A5E9067
->Track not present in AccurateRip database.
Statistics
Read error : 0
Jitter error (maybe fixed) : 0
Retry sector count : 0
Damaged sector count : 0

Track 14
Filename : /Users/jeffperry/Downloads/Al Di Meola - Across the Universe (2020) [FLAC]/14 - Al Di Meola - Octopus's Garden.flac

Track gain : -7.84 dB
Peak : 0.944489
CRC32 hash (test run) : F95F1F13
CRC32 hash : F95F1F13
CRC32 hash (skip zero) : 3356423E
AccurateRip v1 signature : 6BEA3E21
AccurateRip v2 signature : E8D21752
->Track not present in AccurateRip database.
Statistics
Read error : 0
Jitter error (maybe fixed) : 0
Retry sector count : 0
Damaged sector count : 0

No errors occurred

End of status report

––-BEGIN XLD SIGNATURE––-
S2_tOEGlsYgVuHCgg1Ud1EIljZ8AQV2FGatq_EoBonCvGGg_gWWG89oYPpLzbWSjHhxopZ0xJ54zrAtmyLsN8qI4BYB5gHlcw.iEZZe
––-END XLD SIGNATURE––-

Thanks to the Original ripper !