Subcategories

Alan Price - Geordie Boy: The Anthology 2CD (2002) new remastered edition

Posted By: KGmB
Alan Price - Geordie Boy: The Anthology 2CD (2002) new remastered edition

Alan Price - Geordie Boy: The Anthology 2CD (2002) Remastered Edition
EAC Rip | FLAC, Image + CUE, LOG | 453 + 532 MB | MP3 CBR 320 Kbps | 186 + 185 MB | Scans
Rock, Blues rock, Pop | Label: Castle | RAR 3% Rec. | FS, KF

The first in-depth anthology of Alan Price's 30-odd year solo career, this traces the story from his mid-60s hits with The Alan Price Set, through 70s hit LPs like Fame & Price Together (recorded with Georgie Fame), O! Lucky Man!, Between Today & Yesterday, Metropolitan Man and England My England, culminating in his 1995 album, A Gigster's Life For Me.

Official site - Alan Price Online
Alan Price on Wikipedia
Geordie Boy - The Anthology on Amazon.co.uk

Tracklist:

Disc 1:
01. Any Day Now (My Wild, Beautiful Bird) (Bacharach/Hilliard) A-side, Aug 1965
02. I Put A Spell On You (Hawkins) A-side, Mar 1966
03. Hi Lili Hi Lo (Kaper/Deutsche) A-side, Jul 1965
04. Take Me Home (Price) B-side
05. Getting Mighty Crowded (McCoy) The Price To Play, LP, 1966
06. Simon Smith And The Amazing Dancing Bear (Newman) A-side, Feb 1967
07. Tickle Me (Newman) double A-side
08. The House That Jack Built (Price) A-side Jul 1967
09. So Long Dad (Newman) A Price On His Head, LP, 1967
10. To Ramona (Dylan) LP track
11. Shame (Price) A-side, Nov 1967
12. Don't Stop The Carnival (Rollings, arr. Price) A-side, Jan 1968
13. Love Story (Newman) A-side, Jul 1968
14. The Trimdon Grange Explosion (Armstrong/Price) A-side, Jun 1969
15. Sunshine And Rain (The Name Of The Game) (Price) A-side, May 1970
16. Rosetta (Snow) with Georgie Fame, Fame & Price Together, LP, 1971
17. Yellow Man (Newman) with Georgie Fame, LP track
18. That's How Strong My Love Is (Jamison) with Georgie Fame, LP track
19. O Lucky Man! (Price) O! Lucky Man! LP, 1973
20. Poor People (Price) LP track, 1973
21. Jarrow Song (Price) Between Today & Yesterday, LP, 1974
22. Between Today And Yesterday (Price) LP track, 1974
23. In Times Like These (Price) LP track, 1974
24. Papers (Price) Metropolitan Man, LP, 1975
25. The Drinker's Curse (Price) Metropolitan Man, LP, 1975

Disc 2:
01. Changes (Price) Live
02. Goodnight Irene (Leadbetter/Lomax) A-side, Jan 1976
03. Kiss The Night (Price) A-side, Oct 1976
04. Glass Mountain (Price) Shouts Across The Street, LP 1976
05. I Know When I've Had Enough (Price) LP track
06. Shouts Across The Street (Price) LP track
07. I've Been Hurt (Price) Rainbow's End, LP 1977
08. Just For You (Price) LP track 1978
09. I'm A Gambler (Price) LP track
10. England, My England (Price) England, My England, LP 1978
11. Baby Of Mine (Price) LP track 1979
12. Those Tender Lips (Price) LP track
13. House Of The Rising Sun (trad. arr.; Price) Rising Sun, LP 1980
14. I'm Coming Back (Price) LP track
15. Perfect Lady (Price) LP track
16. Over And Over (Byrd) A Rock'n'Roll Night At The Royal Court, LP 1980
17. Don't Slam That Door (Eaglin, arr. Price) (Jarrow) Travellin' Man, LP 1986
18. 50 Pence (Jordan/Price) LP track
19. People Are Talking (Bartholomew/Price) LP track
20. Boom Boom (Hooker) A Gigster's Life For Me, LP 1995
21. Some Change (Scaggs) LP track

Exact Audio Copy V0.99 prebeta 4 from 23. January 2008

EAC extraction logfile from 13. May 2009, 23:57

Alan Price / Geordie Boy The Anthology - Disc 1

Used drive : HL-DT-STRW/DVD GCC-4480B Adapter: 1 ID: 0

Read mode : Secure
Utilize accurate stream : Yes
Defeat audio cache : No
Make use of C2 pointers : Yes

Read offset correction : 6
Overread into Lead-In and Lead-Out : No
Fill up missing offset samples with silence : Yes
Delete leading and trailing silent blocks : No
Null samples used in CRC calculations : No
Used interface : Installed external ASPI interface

Used output format : User Defined Encoder
Selected bitrate : 1024 kBit/s
Quality : High
Add ID3 tag : Yes
Command line compressor : C:\Program Files\codecs\flac.exe
Additional command line options : –best -T "ARTIST=%a" -T "TITLE=%t" -T "ALBUM=%g" -T "DATE=%y" -T "TRACKNUMBER=%n" -T "GENRE=%m" %s


TOC of the extracted CD

Track | Start | Length | Start sector | End sector
––––––––––––––––––––––––––––-
1 | 0:00.00 | 2:59.01 | 0 | 13425
2 | 2:59.01 | 3:18.33 | 13426 | 28308
3 | 6:17.34 | 2:48.43 | 28309 | 40951
4 | 9:06.02 | 2:47.69 | 40952 | 53545
5 | 11:53.71 | 2:15.24 | 53546 | 63694
6 | 14:09.20 | 1:49.61 | 63695 | 71930
7 | 15:59.06 | 2:48.34 | 71931 | 84564
8 | 18:47.40 | 3:14.32 | 84565 | 99146
9 | 22:01.72 | 2:29.37 | 99147 | 110358
10 | 24:31.34 | 3:08.35 | 110359 | 124493
11 | 27:39.69 | 2:48.59 | 124494 | 137152
12 | 30:28.53 | 2:30.33 | 137153 | 148435
13 | 32:59.11 | 2:46.50 | 148436 | 160935
14 | 35:45.61 | 3:57.14 | 160936 | 178724
15 | 39:43.00 | 2:55.45 | 178725 | 191894
16 | 42:38.45 | 2:43.47 | 191895 | 204166
17 | 45:22.17 | 3:38.12 | 204167 | 220528
18 | 49:00.29 | 5:05.18 | 220529 | 243421
19 | 54:05.47 | 2:19.17 | 243422 | 253863
20 | 56:24.64 | 2:12.30 | 253864 | 263793
21 | 58:37.19 | 4:38.50 | 263794 | 284693
22 | 63:15.69 | 4:24.60 | 284694 | 304553
23 | 67:40.54 | 2:34.64 | 304554 | 316167
24 | 70:15.43 | 3:37.48 | 316168 | 332490
25 | 73:53.16 | 4:51.68 | 332491 | 354383


Range status and errors

Selected range

Filename D:\Uploads\Alan Price - Geordie Boy The Anthology [Flac]\Alan Price - Geordie Boy The Anthology - Disc 1.wav

Peak level 96.6 %
Range quality 100.0 %
Copy CRC C587C172
Copy OK

No errors occurred


AccurateRip summary

Track 1 cannot be verified as accurate (confidence 1) [6C7DA96B], AccurateRip returned [B9EAEDF7]
Track 2 cannot be verified as accurate (confidence 1) [523F0554], AccurateRip returned [9C77A46F]
Track 3 cannot be verified as accurate (confidence 1) [E4F63A6B], AccurateRip returned [38942029]
Track 4 cannot be verified as accurate (confidence 1) [E212908F], AccurateRip returned [8A56D8AC]
Track 5 cannot be verified as accurate (confidence 1) [D6AAB80C], AccurateRip returned [B9A12607]
Track 6 cannot be verified as accurate (confidence 1) [AC8D1A47], AccurateRip returned [3BB8C0A3]
Track 7 cannot be verified as accurate (confidence 1) [AFA3DAC5], AccurateRip returned [F4688C9F]
Track 8 cannot be verified as accurate (confidence 1) [64B9AC40], AccurateRip returned [72C50607]
Track 9 cannot be verified as accurate (confidence 1) [A57A3505], AccurateRip returned [18F2FF6E]
Track 10 cannot be verified as accurate (confidence 1) [9E977995], AccurateRip returned [EA89420B]
Track 11 cannot be verified as accurate (confidence 1) [0F57F665], AccurateRip returned [4C1EB42A]
Track 12 cannot be verified as accurate (confidence 1) [3A7D01FE], AccurateRip returned [53C3DC77]
Track 13 cannot be verified as accurate (confidence 1) [3765D3E7], AccurateRip returned [848ACAC1]
Track 14 cannot be verified as accurate (confidence 1) [BD53CF30], AccurateRip returned [8EF76442]
Track 15 cannot be verified as accurate (confidence 1) [719A6FB2], AccurateRip returned [6B2C8F13]
Track 16 cannot be verified as accurate (confidence 1) [E18EFE58], AccurateRip returned [415825DE]
Track 17 cannot be verified as accurate (confidence 1) [7037F173], AccurateRip returned [9A46E8B8]
Track 18 cannot be verified as accurate (confidence 1) [FDF1ADC4], AccurateRip returned [2292CDCC]
Track 19 cannot be verified as accurate (confidence 1) [045C2A89], AccurateRip returned [DADCE92F]
Track 20 cannot be verified as accurate (confidence 1) [A6EE2148], AccurateRip returned [36111723]
Track 21 cannot be verified as accurate (confidence 1) [E641B292], AccurateRip returned [2EC07777]
Track 22 cannot be verified as accurate (confidence 1) [93E7F6A2], AccurateRip returned [FC224374]
Track 23 cannot be verified as accurate (confidence 1) [358897B8], AccurateRip returned [AE0EDE40]
Track 24 cannot be verified as accurate (confidence 1) [BDF76970], AccurateRip returned [BE7BED47]
Track 25 cannot be verified as accurate (confidence 1) [8313C560], AccurateRip returned [B1B8129A]

No tracks could be verified as accurate
You may have a different pressing from the one(s) in the database

End of status report

Exact Audio Copy V0.99 prebeta 4 from 23. January 2008

EAC extraction logfile from 14. May 2009, 0:10

Alan Price / Geordie Boy The Anthology - Disc 2

Used drive : HL-DT-STRW/DVD GCC-4480B Adapter: 1 ID: 0

Read mode : Secure
Utilize accurate stream : Yes
Defeat audio cache : No
Make use of C2 pointers : Yes

Read offset correction : 6
Overread into Lead-In and Lead-Out : No
Fill up missing offset samples with silence : Yes
Delete leading and trailing silent blocks : No
Null samples used in CRC calculations : No
Used interface : Installed external ASPI interface

Used output format : User Defined Encoder
Selected bitrate : 1024 kBit/s
Quality : High
Add ID3 tag : Yes
Command line compressor : C:\Program Files\codecs\flac.exe
Additional command line options : –best -T "ARTIST=%a" -T "TITLE=%t" -T "ALBUM=%g" -T "DATE=%y" -T "TRACKNUMBER=%n" -T "GENRE=%m" %s


TOC of the extracted CD

Track | Start | Length | Start sector | End sector
––––––––––––––––––––––––––––-
1 | 0:00.00 | 3:16.00 | 0 | 14699
2 | 3:16.00 | 3:50.26 | 14700 | 31975
3 | 7:06.26 | 2:42.18 | 31976 | 44143
4 | 9:48.44 | 3:45.50 | 44144 | 61068
5 | 13:34.19 | 3:02.56 | 61069 | 74774
6 | 16:37.00 | 2:29.19 | 74775 | 85968
7 | 19:06.19 | 3:24.45 | 85969 | 101313
8 | 22:30.64 | 3:13.27 | 101314 | 115815
9 | 25:44.16 | 3:46.68 | 115816 | 132833
10 | 29:31.09 | 4:57.37 | 132834 | 155145
11 | 34:28.46 | 5:29.34 | 155146 | 179854
12 | 39:58.05 | 3:52.42 | 179855 | 197296
13 | 43:50.47 | 5:20.39 | 197297 | 221335
14 | 49:11.11 | 3:19.12 | 221336 | 236272
15 | 52:30.23 | 3:00.12 | 236273 | 249784
16 | 55:30.35 | 2:21.22 | 249785 | 260381
17 | 57:51.57 | 2:36.04 | 260382 | 272085
18 | 60:27.61 | 4:52.00 | 272086 | 293985
19 | 65:19.61 | 2:41.13 | 293986 | 306073
20 | 68:00.74 | 4:48.67 | 306074 | 327740
21 | 72:49.66 | 5:34.29 | 327741 | 352819


Range status and errors

Selected range

Filename D:\Uploads\Alan Price - Geordie Boy The Anthology [Flac]\Alan Price - Geordie Boy The Anthology - Disc 2.wav

Suspicious position 1:02:19 - 1:02:20

Peak level 96.6 %
Range quality 99.9 %
Copy CRC 1ABA8A5B
Copy finished

There were errors


AccurateRip summary

Track 1 cannot be verified as accurate (confidence 1) [721AB92E], AccurateRip returned [2D659A55]
Track 2 cannot be verified as accurate (confidence 1) [5931062A], AccurateRip returned [803BE57B]
Track 3 cannot be verified as accurate (confidence 1) [794A1EF8], AccurateRip returned [1918E0F1]
Track 4 cannot be verified as accurate (confidence 1) [15FBFE33], AccurateRip returned [CEBD4CAB]
Track 5 cannot be verified as accurate (confidence 1) [A136078A], AccurateRip returned [933571A4]
Track 6 cannot be verified as accurate (confidence 1) [9213D280], AccurateRip returned [785DEE8C]
Track 7 cannot be verified as accurate (confidence 1) [00CE6B28], AccurateRip returned [3524FF9E]
Track 8 cannot be verified as accurate (confidence 1) [D5D6468E], AccurateRip returned [5B0BA843]
Track 9 cannot be verified as accurate (confidence 1) [E33EE3E5], AccurateRip returned [E64BAE57]
Track 10 cannot be verified as accurate (confidence 1) [43DE3A57], AccurateRip returned [FB90FEFB]
Track 11 cannot be verified as accurate (confidence 1) [382B1E95], AccurateRip returned [89E85DA8]
Track 12 cannot be verified as accurate (confidence 1) [DC914702], AccurateRip returned [3B8FA11D]
Track 13 cannot be verified as accurate (confidence 1) [D9715240], AccurateRip returned [76405604]
Track 14 cannot be verified as accurate (confidence 1) [7EA6EBC3], AccurateRip returned [75806B64]
Track 15 cannot be verified as accurate (confidence 1) [D52A05E6], AccurateRip returned [CD66BB2A]
Track 16 cannot be verified as accurate (confidence 1) [98B7629B], AccurateRip returned [36C8CC52]
Track 17 cannot be verified as accurate (confidence 1) [81C7B454], AccurateRip returned [1E1AD66B]
Track 18 cannot be verified as accurate (confidence 1) [887C07E7], AccurateRip returned [E44BF99E]
Track 19 cannot be verified as accurate (confidence 1) [158DA397], AccurateRip returned [8846DD1C]
Track 20 cannot be verified as accurate (confidence 1) [086D924B], AccurateRip returned [D1631622]
Track 21 cannot be verified as accurate (confidence 1) [5E6670BE], AccurateRip returned [8B3E57BF]

No tracks could be verified as accurate

End of status report

Download Alan Price - Geordie Boy. The Anthology:

Filesonic:
disc1.flac | disc2.flac | disc1.mp3 | disc2.mp3

Keepfile:
disc1.flac | disc2.flac | disc1.mp3 | disc2.mp3

Don't post mirrors, please

My Blog