Subcategories

Alan Silvestri - Who Framed Roger Rabbit (Original Motion Picture Soundtrack) (1988/2018)

Posted By: delpotro
Alan Silvestri - Who Framed Roger Rabbit (Original Motion Picture Soundtrack) (1988/2018)

Alan Silvestri - Who Framed Roger Rabbit (Original Motion Picture Soundtrack) (1988/2018)
EAC Rip | FLAC (tracks+log+.cue) - 848 Mb | Scans - 105 Mb | 02:55:11
Soundtrack | Label: Intrada Special Collection

In 1988, Touchstone Pictures and Amblin Entertainment released Who Framed Roger Rabbit, a technological marvel integrating animation and live action. To score the onscreen antics of the wacky Roger Rabbit and his sourpuss human detective-for-hire Eddie Valiant, director Robert Zemeckis called in his trusted composer, Alan Silvestri. The pair first worked together on Romancing the Stone and the following year's mega-hit, Back to the Future. Having also scored the aggressive action film Predator just the year prior, Silvestri was a brand name and brought a diverse set of styles to the colorful, kinetic onscreen action. Starting with a cool jazz styling in the previously unreleased Main TItle, Silvestri sets the tone for the film, then immediately diverts to a cartoon shooting in progress. A colorful and wild orchestra follows the crazy happenings in the cartoon world until production is interrupted. As the story unfolds, private dick Eddie Valiant is introduced as well as his cool and somewhat nostalgic, bluesy theme. The challenge was for Silvestri to write a score that was jazzy noir, action, with generous doses of Carl Stalling. The result is a swirling mix of styles that come together into a unified whole that captures the world of Roger Rabbit, 1940s Hollywood, and the under- and over-belly of the Toon World.

To present this expanded edition, including a wealth of music not used in the final cut of the film, Intrada assembled Dennis Sand's original mixes into a program running 98 minutes. In addition, some alternate takes are provided in the Extras section as well as the three Roger Rabbit shorts released in subsequent years:

Tummy Trouble, composed and conducted by James Horner
Rollercoaster Rabbit and Trail Mix-Up composed and conducted by Bruce Broughton

To round out this 3-CD set, the final disc contains the original album presentation featuring Silvestri's unique edits and assemblies including some dialog omitted from the complete presentation on the first two discs.

In the film, Bob Hoskins plays Eddie Valiant, a bitter, boozy detective who watched his brother die at the white-gloved hands of a crazed Toon. In a riff on Chinatown and other classic noir films, Roger’s ’40s-era Los Angeles is populated with trolleys, old-school movie moguls…and living cartoon characters. Eddie gets pulled into a case involving the death of Toontown’s owner, Marvin Acme, which is pinned on the rascally Roger Rabbit. The gumshoe must confront his own demons and prejudices, and ultimately the maleficent Judge Doom (Christopher Lloyd), who wants to exterminate all toons in his quest to pave California over with freeways.

Knockout Alan Silvestri soundtrack gets royal treatment! Smash-hit Touchstone Pictures & Steven Spielberg presentation finds Robert Zemeckis blending live action, animation in masterful ground-breaking fashion. 1988 film stars Bob Hoskins, Christopher Lloyd, Stubby Kaye, Charles Fleischer, Joanna Cassidy… plus animated Roger Rabbit, Jessica Rabbit and plenty of “Toons”. Reunion of Spielberg, Zebecks & Silvestri after 1985 blockbuster Back To The Future spawns Los Angeles 40’s-era whodunit with boozed gumshoe Eddie Valiant sucked into solving murder of Toontown’s owner, with Roger, Jessica, Eddie’s deceased brother and evil Judge Doom all participants in solid mystery. Along the way are cameos from Disney’s Dumbo, Fleischer’s Betty Boop, Donald & Daffy Duck, Yosemite Sam, many others. Classic scenes abound! Animated “dueling pianos” sequence with pair of ducks is a visual/aural highlight. Accompanying music by Liszt, arranged by Silvestri and featuring two ducks wacky dialog was included on original 1988 Disney album of soundtrack highlights.

Intrada 3-CD release presents both premiere of complete cue sans dialog on CD 1, original album version on CD 3. Mammoth Silvestri score itself runs nearly 100 minutes across discs 1 & 2, with numerous alternates following on CD 2. Film is scored wall-to-wall with literal smash-up of original score, music bits, songs, Interestingly, majority of original Silvestri cues are heavily truncated in film. Intrada release premieres them in their full-length versions as originally recorded by composer. Eddie Valiant theme in smoky ’noir style’ for solo trumpet plays in balance to sinister Judge Doom theme for low strings with chimes. In between are frantic, dazzling action sequences in signature Silvestri manner for full orchestra, sometimes featuring additional jazz combo of top U.S. players generating further excitement within resources of full London Symphony Orchestra. Danger and excitement become keynote, especially in rousing last half hour! Sexy, sultry vocal number by Jessica Rabbit (“Why Don’t You Do Right?”) another smoky highlight! Alternates include cues written for but dropped from film entirely. But there’s much more! Also appearing are four complete “Cartoon Short” scores featuring Roger Rabbit that appeared in front of subsequent Disney films: Premiere of complete Silvestri score for Who Framed Roger Rabbit’s opening “Maroon Cartoon” with Roger babysitting Baby Herman plus dizzying Bruce Broughton scores for Rollercoaster Rabbit (1990) and Trail Mix-Up (1993) with James Horner score for Tummy Trouble (1989) bringing CD 2 to a close.

CD 3 presents original 1988 Disney soundtrack album, preserving Silvestri’s own 46-minute presentation balancing score highlights with songs. Entire release newly mastered from Disney vault elements and presented courtesy of Disney Enterprises and Amblin Entertainment. Digital editing & assembly by Douglass Fake, mastered by Patricia Sullivan at Bernie Grundman Mastering. Informative notes by Tim Greiving, colorful booklet design by Kay Marshall. Special thanks to Roger Feigelson for helping bring vast array of licensing challenges across the finish line! Bruce Broughton cartoons: Armin Steiner records & mixes with Broughton conducting. James Horner cartoon: Shawn Murphy records & mixes with Horner conducting. Who Framed Roger Rabbit cartoon and score: Dennis Sands records & mixes, James Campbell orchestrates, London Symphony Orchestra performs, Alan Sylvestri composes, conducts. Intrada Special Collection 3-CD set available while quantities and interest remains!
Tracklist:
Disc 1 (01:10:16)
1. Alan Silvestri – Main Title (00:30)
2. Alan Silvestri – Toon Logo (00:17)
3. Alan Silvestri – Cartoon (04:02)
4. Alan Silvestri – Hitch-Hike (02:18)
5. Alan Silvestri – Cloverleaf (01:06)
6. Alan Silvestri – Hungarian Rhapsody No.2 (02:58)
7. Amy Irving – Why Don't You Do Right? (03:06)
8. Alan Silvestri – Eddie Breaks In (01:29)
9. Alan Silvestri – Patty Cake (00:54)
10. Alan Silvestri – The Eye (00:13)
11. Alan Silvestri – I Needed That / Work Here Finished (01:20)
12. Alan Silvestri – Valiant & Valiant (02:09)
13. Alan Silvestri – Fire In The Hatch / Scene Of The Crime (01:07)
14. Alan Silvestri – Shoes On The Loose (00:35)
15. Alan Silvestri – Judge Doom / Looking For A Murder (04:06)
16. Alan Silvestri – The Weasels (02:21)
17. Alan Silvestri – The Glass (01:09)
18. Alan Silvestri – Strange Bedfellows (02:44)
19. Alan Silvestri – Toon Patrol / Search The Place (03:24)
20. Alan Silvestri – I'm A Pawn (02:02)
21. Charles Fleischer – The Merry-Go-Round Broke Down (Roger's Song) (00:47)
22. Alan Silvestri – But I'm A Toon / Looking For Murderer (04:37)
23. Alan Silvestri – Execution (01:47)
24. Alan Silvestri – Got Ya, Kid (03:01)
25. Alan Silvestri – Toon Killed My Brother (01:18)
26. Alan Silvestri – Have A Good Man (00:18)
27. Alan Silvestri – R.K. Maroon (04:03)
28. Alan Silvestri – The Getaway (02:50)
29. Alan Silvestri – Toontown (06:10)
30. Alan Silvestri – Acme Factory / Roger Fanfare / Ton O' Bricks (05:17)
31. Alan Silvestri – Start The Dip (02:18)

Disc 2 (58:32)
1. Alan Silvestri – Eddie's Theme (05:20)
2. Dave Franklin, Cliff Friend – The Merry-Go-Round Broke Down (Instrumental) (02:11)
3. Alan Silvestri – The Kick / The Climbing (02:02)
4. Alan Silvestri – Toon Magnet (00:26)
5. Alan Silvestri – Steamroller (05:44)
6. Alan Silvestri – Hole In The Wall (00:48)
7. Alan Silvestri – Saved (02:56)
8. Alan Silvestri – Big Kiss / Smile, Darn Ya, Smile (02:02)
9. Alan Silvestri – End Credits – Roger Rabbit Medley (Film Version) (06:38)
10. Alan Silvestri – Maroon Toon Logo (Without Logo Slide) (00:18)
11. Alan Silvestri – Hollywood 1947 (01:00)
12. Alan Silvestri – I’m A Pawn (Alternate) (02:01)
13. Alan Silvestri – Toon Killed My Brother (Alternate #1) (01:19)
14. Alan Silvestri – Toon Killed My Brother (Alternate #2) (00:55)
15. Alan Silvestri – Trumpet Fanfare (00:05)
16. Alan Silvestri – Hole In The Wall (Alternate) (00:20)
17. Alan Silvestri – Saved (Alternate) (02:48)
18. Bruce Broughton – Rollercoaster Rabbit (06:36)
19. Bruce Broughton – Trail Mix-Up (08:20)
20. James Horner – Tummy Trouble (06:43)

Disc 3 (45:53)
1. Alan Silvestri – Maroon Logo (00:19)
2. Alan Silvestri – Maroon Cartoon (03:24)
3. Alan Silvestri – Valiant & Valiant (04:22)
4. Alan Silvestri – The Weasels (02:08)
5. Alan Silvestri – Hungarian Rhapsody (Dueling Pianos) (01:53)
6. Alan Silvestri – Judge Doom (03:47)
7. Alan Silvestri – Why Don't You Do Right? (03:07)
8. Alan Silvestri – No Justice For Toons (02:44)
9. Charles Fleischer – The Merry-Go-Round Broke Down (Roger's Song) (00:47)
10. Alan Silvestri – Jessica's Theme (02:03)
11. Alan Silvestri – Toontown (04:44)
12. Alan Silvestri – Eddie's Theme (05:22)
13. Alan Silvestri – The Gag Factory (03:49)
14. Alan Silvestri – The Will (01:10)
15. Dave Franklin, Cliff Friend – Smile Darn Ya Smile / That's All, Folks! (01:17)
16. Alan Silvestri – End Title (04:57)

Exact Audio Copy V1.3 from 2. September 2016

EAC extraction logfile from 28. January 2018, 18:38

Alan Silvestri / Who Framed Roger Rabbit - Disc 1

Used drive : HL-DT-STBDDVDRW CH30N Adapter: 1 ID: 0

Read mode : Secure
Utilize accurate stream : Yes
Defeat audio cache : Yes
Make use of C2 pointers : No

Read offset correction : 6
Overread into Lead-In and Lead-Out : No
Fill up missing offset samples with silence : Yes
Delete leading and trailing silent blocks : No
Null samples used in CRC calculations : Yes
Used interface : Native Win32 interface for Win NT & 2000
Gap handling : Appended to previous track

Used output format : User Defined Encoder
Selected bitrate : 1024 kBit/s
Quality : High
Add ID3 tag : No
Command line compressor : C:\Program Files (x86)\Exact Audio Copy\Flac\flac.exe
Additional command line options : -8 -V -T "artist=%artist%" -T "title=%title%" -T "album=%albumtitle%" -T "date=%year%" -T "tracknumber=%tracknr%" -T "genre=%genre%" %source%


TOC of the extracted CD

Track | Start | Length | Start sector | End sector
––––––––––––––––––––––––––––-
1 | 0:00.00 | 0:30.41 | 0 | 2290
2 | 0:30.41 | 0:17.72 | 2291 | 3637
3 | 0:48.38 | 4:02.35 | 3638 | 21822
4 | 4:50.73 | 2:18.05 | 21823 | 32177
5 | 7:09.03 | 1:06.19 | 32178 | 37146
6 | 8:15.22 | 2:58.24 | 37147 | 50520
7 | 11:13.46 | 3:06.21 | 50521 | 64491
8 | 14:19.67 | 1:29.26 | 64492 | 71192
9 | 15:49.18 | 0:54.04 | 71193 | 75246
10 | 16:43.22 | 0:13.65 | 75247 | 76286
11 | 16:57.12 | 1:20.50 | 76287 | 82336
12 | 18:17.62 | 2:09.30 | 82337 | 92041
13 | 20:27.17 | 1:07.40 | 92042 | 97106
14 | 21:34.57 | 0:35.47 | 97107 | 99778
15 | 22:10.29 | 4:06.03 | 99779 | 118231
16 | 26:16.32 | 2:21.44 | 118232 | 128850
17 | 28:38.01 | 1:09.74 | 128851 | 134099
18 | 29:48.00 | 2:44.59 | 134100 | 146458
19 | 32:32.59 | 3:24.70 | 146459 | 161828
20 | 35:57.54 | 2:02.56 | 161829 | 171034
21 | 38:00.35 | 0:47.46 | 171035 | 174605
22 | 38:48.06 | 4:37.70 | 174606 | 195450
23 | 43:26.01 | 1:47.64 | 195451 | 203539
24 | 45:13.65 | 3:01.44 | 203540 | 217158
25 | 48:15.34 | 1:18.49 | 217159 | 223057
26 | 49:34.08 | 0:18.04 | 223058 | 224411
27 | 49:52.12 | 4:02.50 | 224412 | 242611
28 | 53:54.62 | 2:50.15 | 242612 | 255376
29 | 56:45.02 | 6:10.46 | 255377 | 283172
30 | 62:55.48 | 5:17.14 | 283173 | 306961
31 | 68:12.62 | 2:11.61 | 306962 | 316847


Track 1

Filename C:\Alan Silvestri - Who Framed Roger Rabbit (Intrada ISC 397) [FLAC]\CD 1\01. Main Title.wav

Pre-gap length 0:00:02.00

Peak level 74.6 %
Extraction speed 0.4 X
Track quality 99.6 %
Test CRC 22CD09D2
Copy CRC 22CD09D2
Track not present in AccurateRip database
Copy OK

Track 2

Filename C:\Alan Silvestri - Who Framed Roger Rabbit (Intrada ISC 397) [FLAC]\CD 1\02. Maroon Toon Logo.wav

Peak level 94.3 %
Extraction speed 0.3 X
Track quality 100.0 %
Test CRC D4B85CC0
Copy CRC D4B85CC0
Track not present in AccurateRip database
Copy OK

Track 3

Filename C:\Alan Silvestri - Who Framed Roger Rabbit (Intrada ISC 397) [FLAC]\CD 1\03. Cartoon.wav

Peak level 94.4 %
Extraction speed 1.1 X
Track quality 100.0 %
Test CRC C97F520A
Copy CRC C97F520A
Track not present in AccurateRip database
Copy OK

Track 4

Filename C:\Alan Silvestri - Who Framed Roger Rabbit (Intrada ISC 397) [FLAC]\CD 1\04. Hitch-Hike.wav

Peak level 94.1 %
Extraction speed 1.1 X
Track quality 100.0 %
Test CRC 34EFCDEC
Copy CRC 34EFCDEC
Track not present in AccurateRip database
Copy OK

Track 5

Filename C:\Alan Silvestri - Who Framed Roger Rabbit (Intrada ISC 397) [FLAC]\CD 1\05. Cloverleaf.wav

Peak level 65.1 %
Extraction speed 0.9 X
Track quality 100.0 %
Test CRC CC2DABEA
Copy CRC CC2DABEA
Track not present in AccurateRip database
Copy OK

Track 6

Filename C:\Alan Silvestri - Who Framed Roger Rabbit (Intrada ISC 397) [FLAC]\CD 1\06. Hungarian Rhapsody No. 2.wav

Peak level 87.2 %
Extraction speed 1.2 X
Track quality 100.0 %
Test CRC A8609A49
Copy CRC A8609A49
Track not present in AccurateRip database
Copy OK

Track 7

Filename C:\Alan Silvestri - Who Framed Roger Rabbit (Intrada ISC 397) [FLAC]\CD 1\07. Why Don't You Do Right.wav

Peak level 94.4 %
Extraction speed 1.3 X
Track quality 99.9 %
Test CRC E1A0A707
Copy CRC E1A0A707
Track not present in AccurateRip database
Copy OK

Track 8

Filename C:\Alan Silvestri - Who Framed Roger Rabbit (Intrada ISC 397) [FLAC]\CD 1\08. Eddie Breaks In.wav

Peak level 94.4 %
Extraction speed 1.2 X
Track quality 100.0 %
Test CRC DC1C5912
Copy CRC DC1C5912
Track not present in AccurateRip database
Copy OK

Track 9

Filename C:\Alan Silvestri - Who Framed Roger Rabbit (Intrada ISC 397) [FLAC]\CD 1\09. Patty Cake.wav

Peak level 65.8 %
Extraction speed 1.0 X
Track quality 100.0 %
Test CRC 79DFC40E
Copy CRC 79DFC40E
Track not present in AccurateRip database
Copy OK

Track 10

Filename C:\Alan Silvestri - Who Framed Roger Rabbit (Intrada ISC 397) [FLAC]\CD 1\10. The Eye.wav

Peak level 94.3 %
Extraction speed 0.4 X
Track quality 100.0 %
Test CRC 6A746F3B
Copy CRC 6A746F3B
Track not present in AccurateRip database
Copy OK

Track 11

Filename C:\Alan Silvestri - Who Framed Roger Rabbit (Intrada ISC 397) [FLAC]\CD 1\11. I Needed That , Work Here Finished.wav

Peak level 94.3 %
Extraction speed 0.8 X
Track quality 99.8 %
Test CRC 24757AC5
Copy CRC 24757AC5
Track not present in AccurateRip database
Copy OK

Track 12

Filename C:\Alan Silvestri - Who Framed Roger Rabbit (Intrada ISC 397) [FLAC]\CD 1\12. Valiant & Valiant.wav

Peak level 86.3 %
Extraction speed 1.4 X
Track quality 100.0 %
Test CRC 2BAA53FE
Copy CRC 2BAA53FE
Track not present in AccurateRip database
Copy OK

Track 13

Filename C:\Alan Silvestri - Who Framed Roger Rabbit (Intrada ISC 397) [FLAC]\CD 1\13. Fire In The Hatch , Scene Of The Crime.wav

Peak level 94.3 %
Extraction speed 1.1 X
Track quality 100.0 %
Test CRC 0FA91E4D
Copy CRC 0FA91E4D
Track not present in AccurateRip database
Copy OK

Track 14

Filename C:\Alan Silvestri - Who Framed Roger Rabbit (Intrada ISC 397) [FLAC]\CD 1\14. Shoes On The Loose.wav

Peak level 70.9 %
Extraction speed 0.9 X
Track quality 100.0 %
Test CRC 13F431BB
Copy CRC 13F431BB
Track not present in AccurateRip database
Copy OK

Track 15

Filename C:\Alan Silvestri - Who Framed Roger Rabbit (Intrada ISC 397) [FLAC]\CD 1\15. Judge Doom , Looking For A Murder.wav

Peak level 94.4 %
Extraction speed 1.5 X
Track quality 99.9 %
Test CRC D2F77413
Copy CRC D2F77413
Track not present in AccurateRip database
Copy OK

Track 16

Filename C:\Alan Silvestri - Who Framed Roger Rabbit (Intrada ISC 397) [FLAC]\CD 1\16. The Weasels.wav

Peak level 74.7 %
Extraction speed 1.5 X
Track quality 100.0 %
Test CRC 032D1F44
Copy CRC 032D1F44
Track not present in AccurateRip database
Copy OK

Track 17

Filename C:\Alan Silvestri - Who Framed Roger Rabbit (Intrada ISC 397) [FLAC]\CD 1\17. The Glass.wav

Peak level 37.2 %
Extraction speed 1.3 X
Track quality 100.0 %
Test CRC 21B91A39
Copy CRC 21B91A39
Track not present in AccurateRip database
Copy OK

Track 18

Filename C:\Alan Silvestri - Who Framed Roger Rabbit (Intrada ISC 397) [FLAC]\CD 1\18. Strange Bedfellows.wav

Peak level 93.1 %
Extraction speed 1.7 X
Track quality 100.0 %
Test CRC 5D894DA9
Copy CRC 5D894DA9
Track not present in AccurateRip database
Copy OK

Track 19

Filename C:\Alan Silvestri - Who Framed Roger Rabbit (Intrada ISC 397) [FLAC]\CD 1\19. Toon Patrol , Search The Place.wav

Peak level 94.3 %
Extraction speed 1.8 X
Track quality 100.0 %
Test CRC 4CCDD9FD
Copy CRC 4CCDD9FD
Track not present in AccurateRip database
Copy OK

Track 20

Filename C:\Alan Silvestri - Who Framed Roger Rabbit (Intrada ISC 397) [FLAC]\CD 1\20. I'm A Pawn.wav

Peak level 94.4 %
Extraction speed 1.6 X
Track quality 100.0 %
Test CRC 5202BD86
Copy CRC 5202BD86
Track not present in AccurateRip database
Copy OK

Track 21

Filename C:\Alan Silvestri - Who Framed Roger Rabbit (Intrada ISC 397) [FLAC]\CD 1\21. The Merry-Go-Round Broke Down (Roger's Song).wav

Peak level 92.9 %
Extraction speed 1.2 X
Track quality 100.0 %
Test CRC A599A152
Copy CRC A599A152
Track not present in AccurateRip database
Copy OK

Track 22

Filename C:\Alan Silvestri - Who Framed Roger Rabbit (Intrada ISC 397) [FLAC]\CD 1\22. But I'm A Toon , Looking For Murderer.wav

Peak level 94.4 %
Extraction speed 2.0 X
Track quality 100.0 %
Test CRC D94C2589
Copy CRC D94C2589
Track not present in AccurateRip database
Copy OK

Track 23

Filename C:\Alan Silvestri - Who Framed Roger Rabbit (Intrada ISC 397) [FLAC]\CD 1\23. Execution.wav

Peak level 94.4 %
Extraction speed 1.3 X
Track quality 99.9 %
Test CRC 02E9F258
Copy CRC 02E9F258
Track not present in AccurateRip database
Copy OK

Track 24

Filename C:\Alan Silvestri - Who Framed Roger Rabbit (Intrada ISC 397) [FLAC]\CD 1\24. Got Ya, Kid.wav

Peak level 94.4 %
Extraction speed 1.6 X
Track quality 99.9 %
Test CRC B6C34BD3
Copy CRC B6C34BD3
Track not present in AccurateRip database
Copy OK

Track 25

Filename C:\Alan Silvestri - Who Framed Roger Rabbit (Intrada ISC 397) [FLAC]\CD 1\25. Toon Killed My Brother.wav

Peak level 41.1 %
Extraction speed 1.2 X
Track quality 99.8 %
Test CRC 5E7E3BA6
Copy CRC 5E7E3BA6
Track not present in AccurateRip database
Copy OK

Track 26

Filename C:\Alan Silvestri - Who Framed Roger Rabbit (Intrada ISC 397) [FLAC]\CD 1\26. Have A Good Man.wav

Peak level 40.3 %
Extraction speed 0.8 X
Track quality 100.0 %
Test CRC CB3E153D
Copy CRC CB3E153D
Track not present in AccurateRip database
Copy OK

Track 27

Filename C:\Alan Silvestri - Who Framed Roger Rabbit (Intrada ISC 397) [FLAC]\CD 1\27. R.K. Maroon.wav

Peak level 94.4 %
Extraction speed 1.8 X
Track quality 99.9 %
Test CRC 5EFD2845
Copy CRC 5EFD2845
Track not present in AccurateRip database
Copy OK

Track 28

Filename C:\Alan Silvestri - Who Framed Roger Rabbit (Intrada ISC 397) [FLAC]\CD 1\28. The Getaway.wav

Peak level 94.4 %
Extraction speed 2.0 X
Track quality 100.0 %
Test CRC 5E08EA4C
Copy CRC 5E08EA4C
Track not present in AccurateRip database
Copy OK

Track 29

Filename C:\Alan Silvestri - Who Framed Roger Rabbit (Intrada ISC 397) [FLAC]\CD 1\29. Toontown.wav

Peak level 94.4 %
Extraction speed 2.3 X
Track quality 100.0 %
Test CRC 27AB7FE0
Copy CRC 27AB7FE0
Track not present in AccurateRip database
Copy OK

Track 30

Filename C:\Alan Silvestri - Who Framed Roger Rabbit (Intrada ISC 397) [FLAC]\CD 1\30. Acme Factory , Roger Fanfare , Ton O' Bricks.wav

Peak level 94.3 %
Extraction speed 2.4 X
Track quality 100.0 %
Test CRC 2C4E28AA
Copy CRC 2C4E28AA
Track not present in AccurateRip database
Copy OK

Track 31

Filename C:\Alan Silvestri - Who Framed Roger Rabbit (Intrada ISC 397) [FLAC]\CD 1\31. Start The Dip.wav

Peak level 69.8 %
Extraction speed 1.7 X
Track quality 99.9 %
Test CRC 38B5381D
Copy CRC 38B5381D
Track not present in AccurateRip database
Copy OK


None of the tracks are present in the AccurateRip database

No errors occurred

End of status report

–– CUETools DB Plugin V2.1.6

[CTDB TOCID: smw7RJsFXRt0amNYtsw7.1507Sc-] found
Submit result: already submitted
Track | CTDB Status
1 | (1/1) Accurately ripped
2 | (1/1) Accurately ripped
3 | (1/1) Accurately ripped
4 | (1/1) Accurately ripped
5 | (1/1) Accurately ripped
6 | (1/1) Accurately ripped
7 | (1/1) Accurately ripped
8 | (1/1) Accurately ripped
9 | (1/1) Accurately ripped
10 | (1/1) Accurately ripped
11 | (1/1) Accurately ripped
12 | (1/1) Accurately ripped
13 | (1/1) Accurately ripped
14 | (1/1) Accurately ripped
15 | (1/1) Accurately ripped
16 | (1/1) Accurately ripped
17 | (1/1) Accurately ripped
18 | (1/1) Accurately ripped
19 | (1/1) Accurately ripped
20 | (1/1) Accurately ripped
21 | (1/1) Accurately ripped
22 | (1/1) Accurately ripped
23 | (1/1) Accurately ripped
24 | (1/1) Accurately ripped
25 | (1/1) Accurately ripped
26 | (1/1) Accurately ripped
27 | (1/1) Accurately ripped
28 | (1/1) Accurately ripped
29 | (1/1) Accurately ripped
30 | (1/1) Accurately ripped
31 | (1/1) Accurately ripped


==== Log checksum 5EC079F708B46E777DE027C7037CD39A121D59AC0C38B1F07073699B5C7B1923 ====

Exact Audio Copy V1.3 from 2. September 2016

EAC extraction logfile from 26. January 2018, 4:26

Alan Silvestri / Who Framed Roger Rabbit - Disc 2

Used drive : HL-DT-STBDDVDRW CH30N Adapter: 1 ID: 0

Read mode : Secure
Utilize accurate stream : Yes
Defeat audio cache : Yes
Make use of C2 pointers : No

Read offset correction : 6
Overread into Lead-In and Lead-Out : No
Fill up missing offset samples with silence : Yes
Delete leading and trailing silent blocks : No
Null samples used in CRC calculations : Yes
Used interface : Native Win32 interface for Win NT & 2000
Gap handling : Appended to previous track

Used output format : User Defined Encoder
Selected bitrate : 1024 kBit/s
Quality : High
Add ID3 tag : No
Command line compressor : C:\Program Files (x86)\Exact Audio Copy\Flac\flac.exe
Additional command line options : -8 -V -T "artist=%artist%" -T "title=%title%" -T "album=%albumtitle%" -T "date=%year%" -T "tracknumber=%tracknr%" -T "genre=%genre%" %source%


TOC of the extracted CD

Track | Start | Length | Start sector | End sector
––––––––––––––––––––––––––––-
1 | 0:00.00 | 5:20.15 | 0 | 24014
2 | 5:20.15 | 2:11.32 | 24015 | 33871
3 | 7:31.47 | 2:02.73 | 33872 | 43094
4 | 9:34.45 | 0:26.07 | 43095 | 45051
5 | 10:00.52 | 5:44.61 | 45052 | 70912
6 | 15:45.38 | 0:48.01 | 70913 | 74513
7 | 16:33.39 | 2:56.50 | 74514 | 87763
8 | 19:30.14 | 2:02.72 | 87764 | 96985
9 | 21:33.11 | 6:38.15 | 96986 | 126850
10 | 28:11.26 | 0:18.16 | 126851 | 128216
11 | 28:29.42 | 1:00.68 | 128217 | 132784
12 | 29:30.35 | 2:01.62 | 132785 | 141921
13 | 31:32.22 | 1:19.73 | 141922 | 147919
14 | 32:52.20 | 0:55.01 | 147920 | 152045
15 | 33:47.21 | 0:05.69 | 152046 | 152489
16 | 33:53.15 | 0:20.68 | 152490 | 154057
17 | 34:14.08 | 2:48.21 | 154058 | 166678
18 | 37:02.29 | 6:36.08 | 166679 | 196386
19 | 43:38.37 | 8:20.28 | 196387 | 233914
20 | 51:58.65 | 6:43.73 | 233915 | 264212


Track 1

Filename C:\Alan Silvestri - Who Framed Roger Rabbit (Intrada ISC 397) [FLAC]\CD 2\01. Eddie's Theme.wav

Pre-gap length 0:00:02.00

Peak level 94.4 %
Extraction speed 3.6 X
Track quality 100.0 %
Test CRC 832297DE
Copy CRC 832297DE
Track not present in AccurateRip database
Copy OK

Track 2

Filename C:\Alan Silvestri - Who Framed Roger Rabbit (Intrada ISC 397) [FLAC]\CD 2\02. The Merry-Go-Round Broke Down (Instrumental).wav

Peak level 84.6 %
Extraction speed 1.1 X
Track quality 100.0 %
Test CRC A7DC1A1A
Copy CRC A7DC1A1A
Track not present in AccurateRip database
Copy OK

Track 3

Filename C:\Alan Silvestri - Who Framed Roger Rabbit (Intrada ISC 397) [FLAC]\CD 2\03. The Kick , The Climbing.wav

Peak level 94.4 %
Extraction speed 1.1 X
Track quality 100.0 %
Test CRC DEE2A482
Copy CRC DEE2A482
Track not present in AccurateRip database
Copy OK

Track 4

Filename C:\Alan Silvestri - Who Framed Roger Rabbit (Intrada ISC 397) [FLAC]\CD 2\04. Toon Magnet.wav

Peak level 94.4 %
Extraction speed 0.6 X
Track quality 100.0 %
Test CRC 82659C26
Copy CRC 82659C26
Track not present in AccurateRip database
Copy OK

Track 5

Filename C:\Alan Silvestri - Who Framed Roger Rabbit (Intrada ISC 397) [FLAC]\CD 2\05. Steamroller.wav

Peak level 94.4 %
Extraction speed 1.4 X
Track quality 100.0 %
Test CRC 1B6B4C03
Copy CRC 1B6B4C03
Track not present in AccurateRip database
Copy OK

Track 6

Filename C:\Alan Silvestri - Who Framed Roger Rabbit (Intrada ISC 397) [FLAC]\CD 2\06. Hole In The Wall.wav

Peak level 82.6 %
Extraction speed 0.9 X
Track quality 100.0 %
Test CRC DADF71F5
Copy CRC DADF71F5
Track not present in AccurateRip database
Copy OK

Track 7

Filename C:\Alan Silvestri - Who Framed Roger Rabbit (Intrada ISC 397) [FLAC]\CD 2\07. Saved.wav

Peak level 92.3 %
Extraction speed 1.4 X
Track quality 100.0 %
Test CRC 0CF50849
Copy CRC 0CF50849
Track not present in AccurateRip database
Copy OK

Track 8

Filename C:\Alan Silvestri - Who Framed Roger Rabbit (Intrada ISC 397) [FLAC]\CD 2\08. Big Kiss , Smile, Darn Ya, Smile.wav

Peak level 99.4 %
Extraction speed 1.4 X
Track quality 100.0 %
Test CRC F29E7AC1
Copy CRC F29E7AC1
Track not present in AccurateRip database
Copy OK

Track 9

Filename C:\Alan Silvestri - Who Framed Roger Rabbit (Intrada ISC 397) [FLAC]\CD 2\09. End Credits - Roger Rabbit Medley (Film Version).wav

Peak level 94.3 %
Extraction speed 1.7 X
Track quality 100.0 %
Test CRC 062F4AA7
Copy CRC 062F4AA7
Track not present in AccurateRip database
Copy OK

Track 10

Filename C:\Alan Silvestri - Who Framed Roger Rabbit (Intrada ISC 397) [FLAC]\CD 2\10. Maroon Toon Logo (Without Logo Slide).wav

Peak level 94.4 %
Extraction speed 0.6 X
Track quality 100.0 %
Test CRC 65CAFF4A
Copy CRC 65CAFF4A
Track not present in AccurateRip database
Copy OK

Track 11

Filename C:\Alan Silvestri - Who Framed Roger Rabbit (Intrada ISC 397) [FLAC]\CD 2\11. Hollywood 1947.wav

Peak level 94.4 %
Extraction speed 1.2 X
Track quality 100.0 %
Test CRC B3482C31
Copy CRC B3482C31
Track not present in AccurateRip database
Copy OK

Track 12

Filename C:\Alan Silvestri - Who Framed Roger Rabbit (Intrada ISC 397) [FLAC]\CD 2\12. I'm A Pawn (Alternate).wav

Peak level 94.3 %
Extraction speed 1.2 X
Track quality 99.9 %
Test CRC 8333E3FE
Copy CRC 8333E3FE
Track not present in AccurateRip database
Copy OK

Track 13

Filename C:\Alan Silvestri - Who Framed Roger Rabbit (Intrada ISC 397) [FLAC]\CD 2\13. Toon Killed My Brother (Alternate #1).wav

Peak level 61.5 %
Extraction speed 1.4 X
Track quality 100.0 %
Test CRC A2D8BA25
Copy CRC A2D8BA25
Track not present in AccurateRip database
Copy OK

Track 14

Filename C:\Alan Silvestri - Who Framed Roger Rabbit (Intrada ISC 397) [FLAC]\CD 2\14. Toon Killed My Brother (Alternate #2).wav

Peak level 37.5 %
Extraction speed 1.2 X
Track quality 100.0 %
Test CRC 5F8115D0
Copy CRC 5F8115D0
Track not present in AccurateRip database
Copy OK

Track 15

Filename C:\Alan Silvestri - Who Framed Roger Rabbit (Intrada ISC 397) [FLAC]\CD 2\15. Trumpet Fanfare.wav

Peak level 94.3 %
Extraction speed 0.2 X
Track quality 100.0 %
Test CRC 8F7EC683
Copy CRC 8F7EC683
Track not present in AccurateRip database
Copy OK

Track 16

Filename C:\Alan Silvestri - Who Framed Roger Rabbit (Intrada ISC 397) [FLAC]\CD 2\16. Hole In The Wall (Alternate).wav

Peak level 74.2 %
Extraction speed 0.5 X
Track quality 99.4 %
Test CRC D5463379
Copy CRC D5463379
Track not present in AccurateRip database
Copy OK

Track 17

Filename C:\Alan Silvestri - Who Framed Roger Rabbit (Intrada ISC 397) [FLAC]\CD 2\17. Saved (Alternate).wav

Peak level 93.8 %
Extraction speed 1.4 X
Track quality 99.9 %
Test CRC 55B37BB9
Copy CRC 55B37BB9
Track not present in AccurateRip database
Copy OK

Track 18

Filename C:\Alan Silvestri - Who Framed Roger Rabbit (Intrada ISC 397) [FLAC]\CD 2\18. Rollercoaster Rabbit.wav

Peak level 94.4 %
Extraction speed 2.0 X
Track quality 100.0 %
Test CRC 1EB81A41
Copy CRC 1EB81A41
Track not present in AccurateRip database
Copy OK

Track 19

Filename C:\Alan Silvestri - Who Framed Roger Rabbit (Intrada ISC 397) [FLAC]\CD 2\19. Trail Mix-Up.wav

Peak level 94.4 %
Extraction speed 2.2 X
Track quality 100.0 %
Test CRC 89ADD1C6
Copy CRC 89ADD1C6
Track not present in AccurateRip database
Copy OK

Track 20

Filename C:\Alan Silvestri - Who Framed Roger Rabbit (Intrada ISC 397) [FLAC]\CD 2\20. Tummy Trouble.wav

Peak level 97.0 %
Extraction speed 2.3 X
Track quality 100.0 %
Test CRC 319478DF
Copy CRC 319478DF
Track not present in AccurateRip database
Copy OK


None of the tracks are present in the AccurateRip database

No errors occurred

End of status report

–– CUETools DB Plugin V2.1.6

[CTDB TOCID: bXif3auixhuw_6FCkyIxDHxYc9w-] disk not present in database
Submit result: bXif3auixhuw_6FCkyIxDHxYc9w- has been uploaded


==== Log checksum 81F4E8BECB1D0693417CD4CE1D0D3C8BEBA8661521C7A33AF938ED1F305CC107 ====

Exact Audio Copy V1.3 from 2. September 2016

EAC extraction logfile from 26. January 2018, 6:16

Alan Silvestri / Who Framed Roger Rabbit - Disc 3

Used drive : HL-DT-STBDDVDRW CH30N Adapter: 1 ID: 0

Read mode : Secure
Utilize accurate stream : Yes
Defeat audio cache : Yes
Make use of C2 pointers : No

Read offset correction : 6
Overread into Lead-In and Lead-Out : No
Fill up missing offset samples with silence : Yes
Delete leading and trailing silent blocks : No
Null samples used in CRC calculations : Yes
Used interface : Native Win32 interface for Win NT & 2000
Gap handling : Appended to previous track

Used output format : User Defined Encoder
Selected bitrate : 1024 kBit/s
Quality : High
Add ID3 tag : No
Command line compressor : C:\Program Files (x86)\Exact Audio Copy\Flac\flac.exe
Additional command line options : -8 -V -T "artist=%artist%" -T "title=%title%" -T "album=%albumtitle%" -T "date=%year%" -T "tracknumber=%tracknr%" -T "genre=%genre%" %source%


TOC of the extracted CD

Track | Start | Length | Start sector | End sector
––––––––––––––––––––––––––––-
1 | 0:00.00 | 0:19.39 | 0 | 1463
2 | 0:19.39 | 3:24.70 | 1464 | 16833
3 | 3:44.34 | 4:22.56 | 16834 | 36539
4 | 8:07.15 | 2:08.72 | 36540 | 46211
5 | 10:16.12 | 1:53.72 | 46212 | 54758
6 | 12:10.09 | 3:47.56 | 54759 | 71839
7 | 15:57.65 | 3:07.23 | 71840 | 85887
8 | 19:05.13 | 2:44.57 | 85888 | 98244
9 | 21:49.70 | 0:47.55 | 98245 | 101824
10 | 22:37.50 | 2:03.65 | 101825 | 111114
11 | 24:41.40 | 4:44.14 | 111115 | 132428
12 | 29:25.54 | 5:22.58 | 132429 | 156636
13 | 34:48.37 | 3:49.12 | 156637 | 173823
14 | 38:37.49 | 1:10.32 | 173824 | 179105
15 | 39:48.06 | 1:17.67 | 179106 | 184947
16 | 41:05.73 | 4:58.20 | 184948 | 207317


Track 1

Filename C:\Alan Silvestri - Who Framed Roger Rabbit (Intrada ISC 397) [FLAC]\CD 3\01. Maroon Logo.wav

Pre-gap length 0:00:02.00

Peak level 92.8 %
Extraction speed 1.6 X
Track quality 100.0 %
Test CRC 8FA36A28
Copy CRC 8FA36A28
Track not present in AccurateRip database
Copy OK

Track 2

Filename C:\Alan Silvestri - Who Framed Roger Rabbit (Intrada ISC 397) [FLAC]\CD 3\02. Maroon Cartoon.wav

Peak level 94.9 %
Extraction speed 2.6 X
Track quality 100.0 %
Test CRC 588A9AA6
Copy CRC 588A9AA6
Track not present in AccurateRip database
Copy OK

Track 3

Filename C:\Alan Silvestri - Who Framed Roger Rabbit (Intrada ISC 397) [FLAC]\CD 3\03. Valiant & Valiant.wav

Peak level 82.9 %
Extraction speed 1.2 X
Track quality 100.0 %
Test CRC 486A9B36
Copy CRC 486A9B36
Track not present in AccurateRip database
Copy OK

Track 4

Filename C:\Alan Silvestri - Who Framed Roger Rabbit (Intrada ISC 397) [FLAC]\CD 3\04. The Weasels.wav

Peak level 87.9 %
Extraction speed 1.1 X
Track quality 100.0 %
Test CRC 34EBA9DA
Copy CRC 34EBA9DA
Track not present in AccurateRip database
Copy OK

Track 5

Filename C:\Alan Silvestri - Who Framed Roger Rabbit (Intrada ISC 397) [FLAC]\CD 3\05. Hungarian Rhapsody (Dueling Pianos).wav

Peak level 70.0 %
Extraction speed 1.2 X
Track quality 100.0 %
Test CRC C74A16CB
Copy CRC C74A16CB
Track not present in AccurateRip database
Copy OK

Track 6

Filename C:\Alan Silvestri - Who Framed Roger Rabbit (Intrada ISC 397) [FLAC]\CD 3\06. Judge Doom.wav

Peak level 91.8 %
Extraction speed 1.2 X
Track quality 99.9 %
Test CRC E7D1C37C
Copy CRC E7D1C37C
Track not present in AccurateRip database
Copy OK

Track 7

Filename C:\Alan Silvestri - Who Framed Roger Rabbit (Intrada ISC 397) [FLAC]\CD 3\07. Why Don't You Do Right.wav

Peak level 90.0 %
Extraction speed 1.4 X
Track quality 100.0 %
Test CRC DA990B38
Copy CRC DA990B38
Track not present in AccurateRip database
Copy OK

Track 8

Filename C:\Alan Silvestri - Who Framed Roger Rabbit (Intrada ISC 397) [FLAC]\CD 3\08. No Justice For Toons.wav

Peak level 87.3 %
Extraction speed 1.5 X
Track quality 100.0 %
Test CRC 70A6E82E
Copy CRC 70A6E82E
Track not present in AccurateRip database
Copy OK

Track 9

Filename C:\Alan Silvestri - Who Framed Roger Rabbit (Intrada ISC 397) [FLAC]\CD 3\09. The Merry-Go-Round Broke Down (Roger's Song).wav

Peak level 75.7 %
Extraction speed 1.0 X
Track quality 100.0 %
Test CRC 9F8D5E66
Copy CRC 9F8D5E66
Track not present in AccurateRip database
Copy OK

Track 10

Filename C:\Alan Silvestri - Who Framed Roger Rabbit (Intrada ISC 397) [FLAC]\CD 3\10. Jessica's Theme.wav

Peak level 95.0 %
Extraction speed 1.4 X
Track quality 100.0 %
Test CRC BE009950
Copy CRC BE009950
Track not present in AccurateRip database
Copy OK

Track 11

Filename C:\Alan Silvestri - Who Framed Roger Rabbit (Intrada ISC 397) [FLAC]\CD 3\11. Toontown.wav

Peak level 88.2 %
Extraction speed 1.5 X
Track quality 99.9 %
Test CRC 69E72FD1
Copy CRC 69E72FD1
Track not present in AccurateRip database
Copy OK

Track 12

Filename C:\Alan Silvestri - Who Framed Roger Rabbit (Intrada ISC 397) [FLAC]\CD 3\12. Eddie's Theme.wav

Peak level 81.8 %
Extraction speed 1.8 X
Track quality 100.0 %
Test CRC B25384BA
Copy CRC B25384BA
Track not present in AccurateRip database
Copy OK

Track 13

Filename C:\Alan Silvestri - Who Framed Roger Rabbit (Intrada ISC 397) [FLAC]\CD 3\13. The Gag Factory.wav

Peak level 95.0 %
Extraction speed 1.8 X
Track quality 100.0 %
Test CRC BD62B228
Copy CRC BD62B228
Track not present in AccurateRip database
Copy OK

Track 14

Filename C:\Alan Silvestri - Who Framed Roger Rabbit (Intrada ISC 397) [FLAC]\CD 3\14. The Will.wav

Peak level 87.6 %
Extraction speed 1.4 X
Track quality 100.0 %
Test CRC 724A44EA
Copy CRC 724A44EA
Track not present in AccurateRip database
Copy OK

Track 15

Filename C:\Alan Silvestri - Who Framed Roger Rabbit (Intrada ISC 397) [FLAC]\CD 3\15. Smile, Darn Ya, Smile - That's All, Folks!.wav

Peak level 80.7 %
Extraction speed 1.5 X
Track quality 100.0 %
Test CRC B0646BC8
Copy CRC B0646BC8
Track not present in AccurateRip database
Copy OK

Track 16

Filename C:\Alan Silvestri - Who Framed Roger Rabbit (Intrada ISC 397) [FLAC]\CD 3\16. End Title.wav

Peak level 99.9 %
Extraction speed 2.0 X
Track quality 100.0 %
Test CRC F03879BE
Copy CRC F03879BE
Track not present in AccurateRip database
Copy OK


None of the tracks are present in the AccurateRip database

No errors occurred

End of status report

–– CUETools DB Plugin V2.1.6

[CTDB TOCID: YlYeMywlpIfdNeviCVcYhKIeS3U-] disk not present in database
Submit result: YlYeMywlpIfdNeviCVcYhKIeS3U- has been uploaded


==== Log checksum 7E0828B5D56A18470195C4DDC005D3756CC62C51B5FDFDC9F6AEB2F8C0655206 ====

Thanks to the Original ripper FilmscoreFan !