Subcategories

Tomaso Albinoni - Trio Sonatas op. 1 - Parnassi musici (Repost)

Posted By: zamorna
Tomaso Albinoni - Trio Sonatas op. 1 - Parnassi musici (Repost)

Tomaso Albinoni - Trio Sonatas op. 1 - Parnassi musici
Classical, Baroque | 1 CD | EAC | FLAC, CUE, LOG | Scans | 445 MB | RS
Recorded: 3-6/4 2000, Schlossbergsaal des SWR Studio Freiburg
Released: 2001 | Label: cpo 999 770-2 | TT: 78:13


Parnassi Musici (Margaret MacDuffie, Matthias Fischer - violin,
Stephan Schrader - cello, Martin Lutz - harpsichord/organ)

If one tends to associate Albinoni, the Venetian-born contemporary of Vivaldi with the infamous and spurious Adagio, or at least a handful of his authentic oboe concertos, it is worth noting that he also wrote some 55 operas and nine opuses worth of instrumental pieces. Among these are the twelve Trio Sonatas, op. 1 [1694], dedicated in 1704 to Corelli's great patron, Ottoboni, very Corellian in their style and all in the four-movement sonata da chiesa mold. J. S. Bach used three themes from movements found here in several keyboard fugues; Albinoni's originals are all of top-flight quality, not least for the composer's contrapuntal skills. In all ways, these are splendid performances, beautifully articulated, sensitive as to dynamic contrasts, carefully guaged rhythmically, often with imaginative realizations of the continuo line and nicely added lead-in improvisations. The players catch the gravity of the slow movements especially well, often with a Corellian sweetness, and they know how to build tension in rising sequences. One good example of their excellent contrapuntal interplay can be found in the second movement of the sixth Trio Sonata. The reproduction of the instruments, fairly high in level, is bright but wonderfully clear in a natural acoustic. (Igor Kipnis, Goldberg)
The ever-reliable German original instrument ensemble Parnassi Musici (whose recording of Domenico Gallo's trio sonatas for CPO was one of last year's great surprises) performs these minor masterpieces beautifully. CPO's sound is exemplary and the set includes informative historical notes. Albinoni fans will need no encouragement; others looking for a collection of Italian Baroque trio sonatas that rank with the best would do well to consider this offering. (John Greene, classicstoday.com)

Tracklist:

01-04 Trio No 1 in D minor
05-08 Trio No 2 in F major
09-12 Trio No 3 in A major
13-16 Trio No 4 in G minor
17-20 Trio No 5 in C major
21-24 Trio No 6 in A minor
25-28 Trio No 7 in G major
29-32 Trio No 8 in B minor
33-36 Trio No 9 in D major
37-40 Trio No 10 in F minor
41-44 Trio No 11 in E minor
45-48 Trio No 12 in B flat major


Exact Audio Copy V0.99 prebeta 5 from 4. May 2009

EAC extraction logfile from 23. December 2009, 21:39

Parnassi musici / Albinoni - Trio Sonatas

Used drive : HL-DT-STDVDRAM GSA-T50N Adapter: 0 ID: 1

Read mode : Secure
Utilize accurate stream : Yes
Defeat audio cache : Yes
Make use of C2 pointers : No

Read offset correction : 667
Overread into Lead-In and Lead-Out : No
Fill up missing offset samples with silence : Yes
Delete leading and trailing silent blocks : No
Null samples used in CRC calculations : Yes
Used interface : Native Win32 interface for Win NT & 2000

Used output format : User Defined Encoder
Selected bitrate : 1024 kBit/s
Quality : High
Add ID3 tag : No
Command line compressor : C:\Program Files\Exact Audio Copy\FLAC\FLAC.EXE
Additional command line options : -6 -V -T "ARTIST=%a" -T "TITLE=%t" -T "ALBUM=%g" -T "DATE=%y" -T "TRACKNUMBER=%n" -T "GENRE=%m" -T "COMMENT=%e" %s -o %d


TOC of the extracted CD

Track | Start | Length | Start sector | End sector
––––––––––––––––––––––––––––-
1 | 0:00.15 | 1:24.53 | 15 | 6367
2 | 1:24.68 | 1:52.67 | 6368 | 14834
3 | 3:17.60 | 1:30.54 | 14835 | 21638
4 | 4:48.39 | 1:39.23 | 21639 | 29086
5 | 6:27.62 | 1:10.29 | 29087 | 34365
6 | 7:38.16 | 1:35.47 | 34366 | 41537
7 | 9:13.63 | 1:58.25 | 41538 | 50412
8 | 11:12.13 | 2:53.50 | 50413 | 63437
9 | 14:05.63 | 1:14.11 | 63438 | 68998
10 | 15:19.74 | 1:40.50 | 68999 | 76548
11 | 17:00.49 | 1:59.48 | 76549 | 85521
12 | 19:00.22 | 1:44.68 | 85522 | 93389
13 | 20:45.15 | 1:42.03 | 93390 | 101042
14 | 22:27.18 | 1:33.23 | 101043 | 108040
15 | 24:00.41 | 1:23.22 | 108041 | 114287
16 | 25:23.63 | 1:19.61 | 114288 | 120273
17 | 26:43.49 | 1:23.02 | 120274 | 126500
18 | 28:06.51 | 1:22.60 | 126501 | 132710
19 | 29:29.36 | 1:23.55 | 132711 | 138990
20 | 30:53.16 | 1:29.36 | 138991 | 145701
21 | 32:22.52 | 1:46.24 | 145702 | 153675
22 | 34:09.01 | 1:54.52 | 153676 | 162277
23 | 36:03.53 | 0:42.39 | 162278 | 165466
24 | 36:46.17 | 2:16.70 | 165467 | 175736
25 | 39:03.12 | 1:32.08 | 175737 | 182644
26 | 40:35.20 | 1:40.06 | 182645 | 190150
27 | 42:15.26 | 1:41.05 | 190151 | 197730
28 | 43:56.31 | 1:33.21 | 197731 | 204726
29 | 45:29.52 | 2:02.73 | 204727 | 213949
30 | 47:32.50 | 2:03.25 | 213950 | 223199
31 | 49:36.00 | 1:14.45 | 223200 | 228794
32 | 50:50.45 | 1:24.07 | 228795 | 235101
33 | 52:14.52 | 1:05.48 | 235102 | 240024
34 | 53:20.25 | 1:46.21 | 240025 | 247995
35 | 55:06.46 | 1:42.70 | 247996 | 255715
36 | 56:49.41 | 1:18.10 | 255716 | 261575
37 | 58:07.51 | 1:53.03 | 261576 | 270053
38 | 60:00.54 | 1:44.54 | 270054 | 277907
39 | 61:45.33 | 1:46.29 | 277908 | 285886
40 | 63:31.62 | 1:56.70 | 285887 | 294656
41 | 65:28.57 | 1:30.36 | 294657 | 301442
42 | 66:59.18 | 1:23.74 | 301443 | 307741
43 | 68:23.17 | 1:46.10 | 307742 | 315701
44 | 70:09.27 | 1:17.26 | 315702 | 321502
45 | 71:26.53 | 2:05.57 | 321503 | 330934
46 | 73:32.35 | 1:45.39 | 330935 | 338848
47 | 75:17.74 | 1:46.69 | 338849 | 346867
48 | 77:04.68 | 1:07.03 | 346868 | 351895


Range status and errors

Selected range

Filename C:\Parnassi musici - Albinoni - Trio Sonatas.wav

Peak level 87.6 %
Range quality 100.0 %
Test CRC 2F8FF8E2
Copy CRC 2F8FF8E2
Copy OK

No errors occurred


AccurateRip summary

Track 1 accurately ripped (confidence 5) [C2845BD2]
Track 2 accurately ripped (confidence 5) [6DE09E31]
Track 3 accurately ripped (confidence 5) [66D7212A]
Track 4 accurately ripped (confidence 5) [5318ED3F]
Track 5 accurately ripped (confidence 5) [64AFDBEB]
Track 6 accurately ripped (confidence 5) [693B7186]
Track 7 accurately ripped (confidence 5) [0CF0D625]
Track 8 accurately ripped (confidence 5) [CA407336]
Track 9 accurately ripped (confidence 5) [98D4165A]
Track 10 accurately ripped (confidence 5) [0E579FD6]
Track 11 accurately ripped (confidence 5) [4D8E5125]
Track 12 accurately ripped (confidence 5) [09453CCD]
Track 13 accurately ripped (confidence 5) [EBEFC6AA]
Track 14 accurately ripped (confidence 5) [A7701B15]
Track 15 accurately ripped (confidence 5) [F2B31759]
Track 16 accurately ripped (confidence 5) [4F18FE39]
Track 17 accurately ripped (confidence 5) [5C79FE60]
Track 18 accurately ripped (confidence 5) [25B7CBEA]
Track 19 accurately ripped (confidence 5) [4B814DE3]
Track 20 accurately ripped (confidence 5) [3BD6CB35]
Track 21 accurately ripped (confidence 5) [CABEFF57]
Track 22 accurately ripped (confidence 5) [85F6DB92]
Track 23 accurately ripped (confidence 5) [8C029CA0]
Track 24 accurately ripped (confidence 5) [9D38539C]
Track 25 accurately ripped (confidence 5) [9E07602E]
Track 26 accurately ripped (confidence 5) [017DF311]
Track 27 accurately ripped (confidence 5) [E1669810]
Track 28 accurately ripped (confidence 5) [FAEB7E85]
Track 29 accurately ripped (confidence 5) [8B487733]
Track 30 accurately ripped (confidence 5) [43DAF1D1]
Track 31 accurately ripped (confidence 5) [8069253A]
Track 32 accurately ripped (confidence 5) [1CD32D2A]
Track 33 accurately ripped (confidence 5) [25C5376A]
Track 34 accurately ripped (confidence 5) [0238C6BB]
Track 35 accurately ripped (confidence 5) [CC7DBAEB]
Track 36 accurately ripped (confidence 5) [FC04E35C]
Track 37 accurately ripped (confidence 5) [64E7C107]
Track 38 accurately ripped (confidence 5) [9E67A07D]
Track 39 accurately ripped (confidence 5) [FCA317CD]
Track 40 accurately ripped (confidence 5) [7E20F185]
Track 41 accurately ripped (confidence 5) [A5CF14EE]
Track 42 accurately ripped (confidence 5) [8FBA6E05]
Track 43 accurately ripped (confidence 5) [0BB79A4B]
Track 44 accurately ripped (confidence 5) [FC8BEC24]
Track 45 accurately ripped (confidence 5) [78A87374]
Track 46 accurately ripped (confidence 5) [4407C450]
Track 47 accurately ripped (confidence 5) [E167F065]
Track 48 accurately ripped (confidence 5) [4EEB5691]

All tracks accurately ripped

End of status report



Rapidshare Links