Alcatrazz - No Parole From Rock 'N' Roll (1983)

Posted By: stfine
Alcatrazz - No Parole From Rock 'N' Roll (1983)

Alcatrazz - No Parole From Rock 'N' Roll (1983)
EAC rip | FLAC image + cue + log + scans / MP3 320 kbps | 00:41:31 | 285 MB / 114 MB (3% rec.)
Hard Rock, Heavy Metal | Label: Polydor (Japan), POCP-2307

Heavy Metallized Hard Rock combo with Graham Bonnet on vocals and Yngwie Malmsteen on guitar was short lived but left a few albums, like this first one "No parole from Rock 'n' Roll", quite an interesting exercise of proto baroque metal. You can hear lots of Malmsteen's classical influences, but here those fit the feel of the album very naturally. Graham Bonnet's approach to vocals is also unique. Great album with no filler.

Tracklist

1. Island in the Sun (Malmsteen-Waldo-Bonnet) [03:56]
2. General Hospital (Malmsteen-Waldo-Bonnet) [04:50]
3. Jet to Jet (Malmsteen-Bonnet) [04:27]
4. Hiroshima Mon Amour (Malmsteen-Bonnet) [04:01]
5. Kree Nakoorie (Malmsteen-Waldo-Bonnet) [06:10]
6. Incubus (Malmsteen) [01:24]
7. Too Young to Die, Too Drunk to Live (Malmsteen-Bonnet) [04:21]
8. Big Foot (Malmsteen-Bonnet) [04:06]
9. Starcarr Lane (Malmsteen-Waldo-Bonnet) [03:54]
10. Suffer Me (Malmsteen-Bonnet) [04:22]

Total time 00:41:31

Exact Audio Copy V0.99 prebeta 4 from 23. January 2008

Отчёт EAC об извлечении, выполненном 17. августа 2009, 22:46

Alcatrazz / No Parole From Rock`n`Roll

Дисковод: SlimtypeDVD A DS8A1P Adapter: 0 ID: 0

Режим чтения : Достоверность
Использование точного потока : Да
Отключение кэша аудио : Да
Использование указателей C2 : Нет

Коррекция смещения при чтении : 594
Способность читать области Lead-in и Lead-out : Нет
Заполнение пропущенных сэмплов тишиной : Да
Удаление блоков с тишиной в начале и конце : Нет
При вычислениях CRC использовались нулевые сэмплы : Да
Интерфейс : Встроенный Win32-интерфейс для Win NT/2000

Выходной формат : Внутренние WAV-операции
Формат сэмплов : 44.100 Гц; 16 бит; стерео


TOC извлечённого CD

Трек | Старт | Длительность | Начальный сектор | Конечный сектор
––––––––––––––––––––––––––––––––––-
1 | 0:00.00 | 3:56.50 | 0 | 17749
2 | 3:56.50 | 4:50.45 | 17750 | 39544
3 | 8:47.20 | 4:27.50 | 39545 | 59619
4 | 13:14.70 | 4:01.25 | 59620 | 77719
5 | 17:16.20 | 6:10.55 | 77720 | 105524
6 | 23:27.00 | 1:24.45 | 105525 | 111869
7 | 24:51.45 | 4:21.15 | 111870 | 131459
8 | 29:12.60 | 4:06.05 | 131460 | 149914
9 | 33:18.65 | 3:54.60 | 149915 | 167524
10 | 37:13.50 | 4:21.70 | 167525 | 187169


Характеристики диапазона извлечения и сообщения об ошибках

Выбранный диапазон

Имя файла C:\Documents and Settings\User\My Documents\Alcatrazz - No Parole From Rock`n`Roll.wav

Пиковый уровень 86.9 %
Качество диапазона 100.0 %
CRC копии 735AC3E0
Копирование… OK

Ошибок не произошло


AccurateRip: сводка

Трек 1 точное извлечение (доверие 1) [60358668]
Трек 2 точное извлечение (доверие 1) [BF6B9A47]
Трек 3 точное извлечение (доверие 1) [55D7C9F4]
Трек 4 точное извлечение (доверие 1) [52BD7B91]
Трек 5 точное извлечение (доверие 1) [7044CA4A]
Трек 6 точное извлечение (доверие 1) [C2835908]
Трек 7 точное извлечение (доверие 1) [C275E97E]
Трек 8 точное извлечение (доверие 1) [8C7639B8]
Трек 9 точное извлечение (доверие 1) [7BA0BC1C]
Трек 10 точное извлечение (доверие 1) [E7F3612B]

Все треки извлечены точно

Конец отчёта

Alcatrazz - No Parole From Rock 'N' Roll (1983)

Alcatrazz - No Parole From Rock 'N' Roll (1983)