Subcategories

Al Di Meola - World Sinfonia: Live In London (2007)

Posted By: mark70
Al Di Meola - World Sinfonia: Live In London (2007)

Al Di Meola - World Sinfonia: Live In London (2007)
EAC Rip | FLAC (tracks) + Cue + Log | Scans | 48:50 min | 252 MB
Genre: Jazz, World Fusion | Label: Di Meola Productions, Inc.

Perfect live performance! Interesting arrangements and virtuoso playing!

Al Di Meola - World Sinfonia: Live In London (2007)


Tracklist:

01. Nightclub 1960 (5:45)
02. Indigo (9:28)
03. Bordel 1930 (6:46)
04. Carousel Requiuim (4:53)
05. Tango Suite Part 1 (10:19)
06. Tango Suite Part 2 (2:22)
07. Tango Suite Part 3 (9:19)

Exact Audio Copy V0.99 prebeta 5 from 4. May 2009

EAC extraction logfile from 23. November 2009, 22:55

Al Di Meola / World Sinfonia-Live In London 1991

Used drive : PLEXTOR CD-R PREMIUM2 Adapter: 1 ID: 1

Read mode : Secure
Utilize accurate stream : Yes
Defeat audio cache : Yes
Make use of C2 pointers : No

Read offset correction : 30
Overread into Lead-In and Lead-Out : No
Fill up missing offset samples with silence : Yes
Delete leading and trailing silent blocks : No
Null samples used in CRC calculations : Yes
Used interface : Installed external ASPI interface
Gap handling : Appended to previous track

Used output format : User Defined Encoder
Selected bitrate : 32 kBit/s
Quality : High
Add ID3 tag : No
Command line compressor : C:\Programmi\FLAC\flac.exe
Additional command line options : -8 -V -T "ARTIST=%a" -T "TITLE=%t" -T "ALBUM=%g" -T "DATE=%y" -T "TRACKNUMBER=%n" -T "GENRE=%m" -T "COMMENT=EAC FLAC -8" %s


TOC of the extracted CD

Track | Start | Length | Start sector | End sector
––––––––––––––––––––––––––––-
1 | 0:00.00 | 5:45.13 | 0 | 25887
2 | 5:45.13 | 9:28.33 | 25888 | 68520
3 | 15:13.46 | 6:46.31 | 68521 | 99001
4 | 22:00.02 | 4:53.23 | 99002 | 120999
5 | 26:53.25 | 10:18.42 | 121000 | 167391
6 | 37:11.67 | 2:22.01 | 167392 | 178042
7 | 39:33.68 | 9:18.61 | 178043 | 219953


Track 1

Filename D:\My Rip\01 - Nightclub 1960.wav

Pre-gap length 0:00:02.00

Peak level 98.8 %
Track quality 100.0 %
Test CRC 30117F55
Copy CRC 30117F55
Track not present in AccurateRip database
Copy OK

Track 2

Filename D:\My Rip\02 - Indigo.wav

Peak level 81.4 %
Track quality 100.0 %
Test CRC ED8CE400
Copy CRC ED8CE400
Track not present in AccurateRip database
Copy OK

Track 3

Filename D:\My Rip\03 - Bordel 1930.wav

Peak level 91.4 %
Track quality 99.9 %
Test CRC 2C3E25AA
Copy CRC 2C3E25AA
Track not present in AccurateRip database
Copy OK

Track 4

Filename D:\My Rip\04 - Carousel Requiuim.wav

Peak level 69.0 %
Track quality 100.0 %
Test CRC 18060785
Copy CRC 18060785
Track not present in AccurateRip database
Copy OK

Track 5

Filename D:\My Rip\05 - Tango Suite Part 1.wav

Peak level 97.3 %
Track quality 100.0 %
Test CRC 257FE60E
Copy CRC 257FE60E
Track not present in AccurateRip database
Copy OK

Track 6

Filename D:\My Rip\06 - Tango Suite Part 2.wav

Peak level 49.7 %
Track quality 100.0 %
Test CRC B95C4517
Copy CRC B95C4517
Track not present in AccurateRip database
Copy OK

Track 7

Filename D:\My Rip\07 - Tango Suite Part 3.wav

Peak level 91.6 %
Track quality 100.0 %
Test CRC 0548AC1F
Copy CRC 0548AC1F
Track not present in AccurateRip database
Copy OK


None of the tracks are present in the AccurateRip database

No errors occurred

End of status report