Subcategories

Alejandro Escovedo - Street Songs Of Love (2010)

Posted By: plonker
Alejandro Escovedo - Street Songs Of Love (2010)

Alejandro Escovedo - Street Songs Of Love (2010)
Alt. Rock | EAC rip | WV: IMG+CUE+EAC/log -> 300 MB | mp3@VBR V0 (266kbps) -> 102 MB
46:14 min | covers | RAR inc. 3% recovery | UL & FF | Fantasy FAN-31922ADV

AMG review by Thom Jurek:
Street Songs of Love, Alejandro Escovedo's tenth studio album, is the first time in his career he has written an album entirely comprised of visceral, aggressive rock & roll love songs. Tony Visconti (who produced The Real Animal) is back in the production seat with Bob Clearmountain mixing. Most of the album was co-written with Chuck Prophet, a partnership that began on The Real Animal, but it's grown into something intensely focused. On these songs, the tempos are faster, the sounds harder. David Pulkingham's guitars scream and pummel, Bobby Daniels' bass rumbles and punches, and Hector Munoz's drums sound like cracking thunder. (They're called the Sensitive Boys.) The tension and drama in Escovedo's vocal delivery are tough and tender simultaneously. His lyrics typically sear – burning with sensuality and heartbreak, loss and anger – yet ultimately surrender to love's power as a redemptive force that may tear one to pieces in the purification process. His words here reflect the truths revealed by songwriters Doc Pomus, Percy Mayfield and Lou Reed. Escovedo's singing is in-the-moment street poetry. On "Anchor," chunky power chords announce him: "I've always loved your love/In and out, up and down/If your love was a ship/I'd pull your anchor and I'd christen it/I'm in love with love/And it broke me in two…." the Sensitive Boys kick up a ruckus as Karla Manzur and Nakia Reynoso temper them like a back-alley angel chorus. "Silver Cloud" is ferocious with guitar riffs pushing Escovedo's vocal hard to get out in front. One can hear traces of glam in the mix and refrains, but the melody is pure Escovedo. Ian Hunter helps out on "Down in the Bowery," a beautiful, truth-telling street-corner ballad that stands up with the best from Dion and Willy DeVille. Bruce Springsteen makes a duet appearance on the blazing anthem "Faith": they roar Alejandro's lyrics like unhinged prophets preaching the necessity of belief in the Beloved. Pulkingham's leads tear a hole in the mix and Munoz's drums, nearly shove the time signature off the rails. "Tender Heart" has a furious, melt-your-face-off garage band intensity; "Shelling Rain" is pained desire and loss in rocking soul; "Tula" is a rumbling, funky blues. There is swaggering rage and revulsion in "This Bed Is Getting Crowded," and brazen desire in the knife-edged, sensual strut of the title cut. "Fall Apart with You" updates the Lieber & Stoller love song model. Street Songs of Love is the most raucous, rawest, and finest album Escovedo's yet released. In crafting this song cycle, he pulled out all the stops and reveals – at last – all his talent at once; it's a portrait of the artist at his zenith. Escovedo can take his place among the greats he's admired all his life; he's earned it, and at this juncture, there are few even in his league. (4/5)
Tracklist:
01 Anchor (03:30)
02 Silver Cloud (03:04)
03 This Bed Is Getting Crowded (03:17)
04 Street Songs (02:47)
05 Down In The Bowery (04:17)
06 Tender Heart (02:26)
07 After The Meteor Showers (04:38)
08 Tula (03:49)
09 Undesired (04:27)
10 Fall Apart With You (04:20)
11 Shelling Rain (03:20)
12 Faith (03:27)
13 Fort Worth Blue (02:52)

Exact Audio Copy V0.99 prebeta 5 from 4. May 2009

EAC extraction logfile from 2. August 2010, 12:48

Alejandro Escovedo / Street Songs Of Love

Used drive : ATAPI iHAS124 Y Adapter: 2 ID: 0

Read mode : Secure
Utilize accurate stream : Yes
Defeat audio cache : Yes
Make use of C2 pointers : No

Read offset correction : 48
Overread into Lead-In and Lead-Out : No
Fill up missing offset samples with silence : Yes
Delete leading and trailing silent blocks : No
Null samples used in CRC calculations : Yes
Used interface : Native Win32 interface for Win NT & 2000

Used output format : Internal WAV Routines
Sample format : 44.100 Hz; 16 Bit; Stereo


TOC of the extracted CD

Track | Start | Length | Start sector | End sector
––––––––––––––––––––––––––––-
1 | 0:00.00 | 3:30.33 | 0 | 15782
2 | 3:30.33 | 3:03.65 | 15783 | 29572
3 | 6:34.23 | 3:16.55 | 29573 | 44327
4 | 9:51.03 | 2:46.73 | 44328 | 56850
5 | 12:38.01 | 4:17.30 | 56851 | 76155
6 | 16:55.31 | 2:26.18 | 76156 | 87123
7 | 19:21.49 | 4:38.17 | 87124 | 107990
8 | 23:59.66 | 3:48.54 | 107991 | 125144
9 | 27:48.45 | 4:26.40 | 125145 | 145134
10 | 32:15.10 | 4:19.73 | 145135 | 164632
11 | 36:35.08 | 3:20.04 | 164633 | 179636
12 | 39:55.12 | 3:26.44 | 179637 | 195130
13 | 43:21.56 | 2:51.64 | 195131 | 208019


Range status and errors

Selected range

Filename C:\musjk\Alejandro Escovedo - Street Songs Of Love.wav

Peak level 98.8 %
Range quality 100.0 %
Test CRC 012A1365
Copy CRC 012A1365
Copy OK

No errors occurred


AccurateRip summary

Track 1 not present in database
Track 2 not present in database
Track 3 not present in database
Track 4 not present in database
Track 5 not present in database
Track 6 not present in database
Track 7 not present in database
Track 8 not present in database
Track 9 not present in database
Track 10 not present in database
Track 11 not present in database
Track 12 not present in database
Track 13 not present in database

None of the tracks are present in the AccurateRip database

End of status report

Not my rip! eMule find .
All credits and thanks to original releaser transgressions


************ download ************