Subcategories

Alexei Kuznetsov , Ildar Kazakhanov - Alone together

Posted By: odoacer
Alexei Kuznetsov , Ildar Kazakhanov  - Alone together

Alexei Kuznetsov , Ildar Kazakhanov - Alone together
JAZZ | EAC rip | FLAC(IMAGE+CUE+LOG) | COVERS | 325Mb
Total Time - 68:40 , Year - 2008


01. Once I Loved (A.C.Jobim)
02. Willow Weep For Me (A.Ronell)
03. Елена и Маргарита (А.Кузнецов) соло
04. All The Things You Are (J.Kern)
05. There Will Never Be Another You (H.Warren)
06. Nuages (J.Reinhard)
07. Алёша (А.Кузнецов)
08. Summertime (G.Gershwin)
09. Don't Get Around Much Anymore (D.Ellington)
10. Alone Together (A.Schwartz)

Совместная работа двух выдающихся российских гитаристов – Ильдара Казаханова и Алексея Кузнецова
Как и подобает джазовой пластинке, Alone Together – живое концертное исполнение, записанное одним дублем и передающее атмосферу сиюминутности, выстроенной по импровизационным законам жанра. Даже не стоит упоминать факт виртуозного владения музыкантами ритмом, звуком, тембром и всем арсеналом джазовых приемов. Это само собой разумеется. Alone Together – это разговор личностей, воплощающих шарм живой музыки.
Exact Audio Copy V0.99 prebeta 4 from 23. January 2008

Отчёт EAC об извлечении, выполненном 25. февраля 2009, 21:29

Ildar Kazakhanov, Alexei Kuznetsov / Alone Tohether

Дисковод: TEAC DV-W28S-R Adapter: 0 ID: 1

Режим чтения : Достоверность
Использование точного потока : Да
Отключение кэша аудио : Да
Использование указателей C2 : Нет

Коррекция смещения при чтении : 48
Способность читать области Lead-in и Lead-out : Нет
Заполнение пропущенных сэмплов тишиной : Да
Удаление блоков с тишиной в начале и конце : Нет
При вычислениях CRC использовались нулевые сэмплы : Да
Интерфейс : Установленный внешний ASPI-интерфейс

Выходной формат : Пользовательский кодировщик
Выбранный битрейт : 768 kBit/s
Качество : Высокий
Добавление ID3-тэга : Нет
Утилита сжатия : C:\Program Files\Exact Audio Copy\FLAC\FLAC.EXE
Дополнительные параметры : -8 -V %s -o %d

TOC извлечённого CD

Трек | Старт | Длительность | Начальный сектор | Конечный сектор
––––––––––––––––––––––––––––––––––-
1 | 0:00.00 | 5:28.41 | 0 | 24640
2 | 5:28.41 | 9:22.00 | 24641 | 66790
3 | 14:50.41 | 4:54.42 | 66791 | 88882
4 | 19:45.08 | 7:51.38 | 88883 | 124245
5 | 27:36.46 | 5:22.56 | 124246 | 148451
6 | 32:59.27 | 4:05.16 | 148452 | 166842
7 | 37:04.43 | 6:59.31 | 166843 | 198298
8 | 44:03.74 | 8:54.22 | 198299 | 238370
9 | 52:58.21 | 8:14.00 | 238371 | 275420
10 | 61:12.21 | 7:28.37 | 275421 | 309057

Характеристики диапазона извлечения и сообщения об ошибках

Выбранный диапазон

Имя файла D:\Uploads\Ildar Kazakhanov, Alexei Kuznetsov - Alone together\Ildar Kazakhanov, Alexei Kuznetsov - Alone Tohether.wav

Пиковый уровень 100.0 %
Качество диапазона 100.0 %
CRC теста 24EBC45E
CRC копии 24EBC45E
Копирование… OK

Ошибок не произошло

Конец отчёта

Narod :
http://narod.ru/disk/6471478000/AKIKat.part1.rar.html
http://narod.ru/disk/6460586000/AKIKat.part2.rar.html

Rapid :
http://rapidshare.com/files/207326552/AKIKat.part1.rar
http://rapidshare.com/files/207328120/AKIKat.part2.rar