Subcategories

Alexandros Hatzis - Gypsy songs [EU-ROM] (2012)

Posted By: Speedyclick
Alexandros Hatzis - Gypsy songs [EU-ROM] (2012)

Alexandros Hatzis - Gypsy songs [EU-ROM] (2012)
EAC Rip | FLAC (image & cue & log) & mp3 @ 320 kbps | tracks: 14 | Scans | 53:13 | ~ 384 Mb & 130 Mb
Label: BMG | 5% recovery record | Folk, gypsy, ethnic

Alexandros Hatzis is the son of the popular gypsy songwriter and singer Kostas Hatzis. He has an outstanding ROM culture and he plays flamenco guitar and sings gypsy songs in a unique way, with his powerful, hoarse voice. He started his career at 1991 near his famous father and has released many popular albums till today. This beautiful album contains gypsy songs in greek and also the exotic ROM idiom, composed by himself and by Kostas Hatzis. Enjoy.

Alexandros Hatzis, was born in Bad Nauheim, Germany by Ursula von Jordis. Even though he believes that someone “is born an artist”, he strongly believes that he should evolve and improve his skills without however intervening in the DNA of his talent. This notion of development was passed on to him by his father, Greek interpreter composer and poet Kostas Hatzis. He attended seminars of phonetics and breathing by the well known professor of Monody, Drama and Byzantine Music Thanasis Arampatzis. In 1991 he devoted himself to singing and made his first appearance next to his father in summer concerts interpreting gypsy songs, and earning for first time the attention of public. In 1992 he made his first album with BMG, singing his father’s music. The album was entitled “Alexandros sings Kosta Hatzi” and contained the hit song, “Zitas na figo” (lyrics by Elia Zervoy and Sofia Vossou).

During the winter of 1994 his collaboration with Marinella at the REX theatre, gave him a big career push. At the same time his second album entitled “alli opsi” containing Cyprus Haralampous songs as well as his own, came out with FM Records. The album contains an exceptional adaptation of the song “Ti na to kano to fili”. More…
TRACKLIST
01. Grenade (Hirovomvida)
02. Bipaesko
03. Katziava
04. Tragio
05. I fill up near you (Plai sou gemizo)
06. Bem
07. Love is a way (I agapi einai dromos)
08. Lost homeland (Hameni patrida)
09. Take (Pare)
10. Amen doui
11. So sine
12. Tzikarava
13. Roma
14. Roma [Instrumental]

Exact Audio Copy V1.0 beta 3 from 29. August 2011

EAC extraction logfile from 20. November 2011, 6:49

Alexandros Hatzis / EU-ROM

Used drive : HL-DT-STDVDRAM GSA-T20N Adapter: 1 ID: 0

Read mode : Secure
Utilize accurate stream : Yes
Defeat audio cache : Yes
Make use of C2 pointers : No

Read offset correction : 667
Overread into Lead-In and Lead-Out : No
Fill up missing offset samples with silence : Yes
Delete leading and trailing silent blocks : No
Null samples used in CRC calculations : Yes
Used interface : Native Win32 interface for Win NT & 2000

Used output format : User Defined Encoder
Selected bitrate : 1024 kBit/s
Quality : High
Add ID3 tag : No
Command line compressor : C:\Program Files\Exact Audio Copy\Flac\flac.exe
Additional command line options : -V -5 -T "artist=%artist%" -T "title=%title%" -T "album=%albumtitle%" -T "tracknumber=%tracknr2%" -T "genre=%genre%" -5 %source%


TOC of the extracted CD

Track | Start | Length | Start sector | End sector
––––––––––––––––––––––––––––-
1 | 0:00.00 | 3:21.22 | 0 | 15096
2 | 3:21.22 | 3:56.54 | 15097 | 32850
3 | 7:18.01 | 3:29.36 | 32851 | 48561
4 | 10:47.37 | 3:56.69 | 48562 | 66330
5 | 14:44.31 | 3:47.37 | 66331 | 83392
6 | 18:31.68 | 3:11.09 | 83393 | 97726
7 | 21:43.02 | 3:25.01 | 97727 | 113102
8 | 25:08.03 | 3:16.32 | 113103 | 127834
9 | 28:24.35 | 2:59.60 | 127835 | 141319
10 | 31:24.20 | 2:38.26 | 141320 | 153195
11 | 34:02.46 | 3:30.53 | 153196 | 168998
12 | 37:33.24 | 5:31.14 | 168999 | 193837
13 | 43:04.38 | 5:06.01 | 193838 | 216788
14 | 48:10.39 | 5:03.35 | 216789 | 239548


Range status and errors

Selected range

Filename M:\EAC Rips\GREEK\Alexandros Hatzis - Eu-ROM\Alexandros Hatzis - EU-ROM.wav

Peak level 100.0 %
Extraction speed 3.5 X
Range quality 100.0 %
Test CRC B268E5C0
Copy CRC B268E5C0
Copy OK

No errors occurred


AccurateRip summary

Track 1 not present in database
Track 2 not present in database
Track 3 not present in database
Track 4 not present in database
Track 5 not present in database
Track 6 not present in database
Track 7 not present in database
Track 8 not present in database
Track 9 not present in database
Track 10 not present in database
Track 11 not present in database
Track 12 not present in database
Track 13 not present in database
Track 14 not present in database

None of the tracks are present in the AccurateRip database

End of status report

–– CUETools DB Plugin V2.1.3

[CTDB TOCID: WyNKeRrJ6rtXezt0chj_Fo5Evvw-] disk not present in database, Submit result: WyNKeRrJ6rtXezt0chj_Fo5Evvw- has been uploaded


==== Log checksum AE07BF49C092E4CA76E6C12D6895121C72D6B061A9B94B4E5368B5F26A511520 ====