Subcategories

Alice Cooper - From The Inside (1978)

Posted By: L@ter
Alice Cooper - From The Inside (1978)

Alice Cooper - From The Inside (1978)
EAC Rip | FLAC, IMG+CUE, LOG | 236 MB | 39,06 min | Covers
Label: Warner Bros | Rock, Hard Rock, Pop Rock | November 1978 | RAR 3% Rec.

From the Inside is a concept album by Alice Cooper, released in 1978. It was inspired by Cooper's stay in a New York sanitarium due to his alcoholism. Each of the characters in the songs were based on actual people Cooper met in the sanitarium. With this album, the Alice Cooper Band saw the addition of three former members of the Elton John band: lyricist Bernie Taupin, guitarist Davey Johnstone, and bassist Dee Murray. Alice Cooper (born Vincent Damon Furnier, February 4, 1948) is an American rock singer, songwriter and musician whose career spans more than four decades. Alice Cooper
Exact Audio Copy V0.99 prebeta 5 from 4. May 2009

EAC extraction logfile from 7. December 2009, 17:46

Alice Cooper / From The Inside

Used drive : TSSTcorpCDDVDW SH-S202J Adapter: 0 ID: 0

Read mode : Secure
Utilize accurate stream : Yes
Defeat audio cache : Yes
Make use of C2 pointers : No

Read offset correction : 6
Overread into Lead-In and Lead-Out : No
Fill up missing offset samples with silence : Yes
Delete leading and trailing silent blocks : No
Null samples used in CRC calculations : Yes
Used interface : Native Win32 interface for Win NT & 2000

Used output format : User Defined Encoder
Selected bitrate : 768 kBit/s
Quality : High
Add ID3 tag : No
Command line compressor : C:\Program Files\Exact Audio Copy\FLAC\FLAC.EXE
Additional command line options : -6 -V -T "ARTIST=%a" -T "TITLE=%t" -T "ALBUM=%g" -T "DATE=%y" -T "TRACKNUMBER=%n" -T "GENRE=%m" -T "COMMENT=%e" %s -o %d


TOC of the extracted CD

Track | Start | Length | Start sector | End sector
––––––––––––––––––––––––––––-
1 | 0:00.00 | 3:55.18 | 0 | 17642
2 | 3:55.18 | 3:32.69 | 17643 | 33611
3 | 7:28.12 | 3:58.08 | 33612 | 51469
4 | 11:26.20 | 4:16.13 | 51470 | 70682
5 | 15:42.33 | 4:12.70 | 70683 | 89652
6 | 19:55.28 | 2:45.07 | 89653 | 102034
7 | 22:40.35 | 3:57.69 | 102035 | 119878
8 | 26:38.29 | 3:38.40 | 119879 | 136268
9 | 30:16.69 | 3:43.55 | 136269 | 153048
10 | 34:00.49 | 5:06.08 | 153049 | 176006


Range status and errors

Selected range

Filename C:\Alice Cooper - From The Inside.wav

Peak level 100.0 %
Range quality 100.0 %
Copy CRC EB4E24C7
Copy OK

No errors occurred

AccurateRip summary

Track 1 not present in database
Track 2 not present in database
Track 3 not present in database
Track 4 not present in database
Track 5 not present in database
Track 6 not present in database
Track 7 not present in database
Track 8 not present in database
Track 9 not present in database
Track 10 not present in database

None of the tracks are present in the AccurateRip database

End of status report

AUDIOCHECKER v2.0 beta (build 457) - by Dester - opdester@freemail.hu
~~~~~~~~~~~~~~~~~~~~~~~~~~~~~~~~~~
-=== DO NOT EDIT THIS FILE! ===-

Path: …\Alice Cooper - From The Inside (1978)

1 -=- Alice Cooper - From The Inside.flac -=- CDDA (100%)

154918372


Tracklist

01. From The Inside
02. Wish I Were Born In Beverly Hills
03. The Quiet Room
04. Nurse Rozetta
05. Millie And Billie
06. Serious
07. How You Gonna See Me Now
08. For Veronica's Sake
09. Jackknife Johnny
10. Inmates (We're All Crazy)


Part 1
Part 2
Part 3

Pasword: L@ter