Subcategories

V.A. - All return to yesterday (3CD, 2013)

Posted By: Speedyclick
V.A. - All return to yesterday (3CD, 2013)

V.A. - All return to yesterday (3CD, 2013)
EAC Rip | FLAC (image & cue & log) & mp3 @ 320 kbps | tracks: 44 | Scans | 2:17:38 | ~ 803 Mb & 348 Mb
Label: MINOS-EMI | 5% recovery record | Greek folk songs, ballads

Nostalgic collection with unforgettable greek folk songs from the 60's, 70's and 80's. Most of them have become "classics" and remain timeless today. The greatest greek composers and many top singers will guide you to a delightful musical journey to the past. Enjoy really beautiful music and songs, in lossless.

TRACKLIST

CD01 (48:07 | ~ 289 Mb & 143 Mb)
01. Manolis Mitsias - Once in Elefsina (Stin Elefsina mia fora)
02. Yiannis Kalatzis - The old clock (To palio roloi)
03. Stamatis Kokotas - At Profitis Ilias (Stou Profiti Ilia)
04. Poly Panou - The narrow street (To kalterimi)
05. Vicky Mosholiou - The trains that left (Ta trena pou figan)
06. Stelios Kazantzidis & Marinela - The pain is strong (Ine megalos o kaimos)
07. Grigoris Bithikotis - Tomorrow again (Avrio pali)
08. Marinela - A friend came (Irthe enas filos)
09. Yiannis Poulopoulos - Remember September (Tmimisou ton Septemvri)
10. Yiannis Parios - What do you want me to do (Ti thelis na kano)
11. Dimitra Galani - Your blue letters (Ta galazia sou gramata)
12. Manolis Mitsias - With the first bus (Me to proto leoforio)
13. Anna Vissi - I love you (S' agapo)
14. Eleni Vitali - Hello Mr Menexes (Gia sou kirie menexe)
15. Mariza Koch - Lullaby (Nanourisma)

CD02 (43:03 | ~ 261 Mb & 99 Mb)
01. Stamatis Kokotas - The fool (O trelos)
02. Vicky Mosholiou - I don't cry for now (Den kleo gia tora)
03. Grigoris Bithikotsis - Saturday night at Kessariani (Savatovrado sti Kessariani)
04. Yiannis Kalatzis - I wish I was a bird (Ithela na 'mouna pouli)
05. Marinela - What to blame (Ti na ftei)
06. Yiannis Parios - Forgive me to love you so much (Signomi pou s' agapisa poli)
07. Manolis Mitsias - Never (Pote)
08. Dimitra Galani - Rain again today (Vrohi ke simera)
09. Tania Tsanaklidou - A small sea (Mia thalassa mikri)
10. Alkistis Protopsalti - Don't be stubborn (Min kanis pismata)
11. Aleka Kanellidou - When a woman cries (Otan mia gineka klei)
12. Stamatis Kokotas - Only a parenthesis (Mia parenthesi ke mono)
13. Eleni Dimou - Talk me simply (Mila mou apla)
14. Maria Farantouri & Zulfu Livaneli - Like an immigrant (San to metanasti)

CD03 (46:28 | ~ 253 Mb & 106 Mb)
01. Yiannis Parios - You will remember me (Tha me thimithis)
02. Manolis Mitsias - Because I love you (Epidi s' agapo)
03. Vicky Mosholiou - Don't kiss my eyes (Min ta filas ta matia mou)
04. Stamatis Kokotas - Pretend that you met me (Pes pos m' antamoses)
05. Yiannis Kalatzis - Dolphin small dolphin (Delfini delfinaki)
06. Panos Tzanetis - You've been lost (Hathikes)
07. Stelios Kazantzidis & Marinella - Cruel life (Aponi zoi)
08. Grigoris Bithikotsis - When the time comes (Otan simani i ora)
09. Vicky Mosholiou - Why you destroyed my youth (Ti sou ftexan ta niata mou)
10. Tolis Voskopoulos - I beg you (Se iketevo)
11. Aleka Kanellidou - Let me go (Ase me na figo)
12. Tania Tsanaklidou - My love is lost (Pai i agapi mou)
13. Anna Vissi - Forgotten fairy tale (Paramithi xehasmeno)
14. Eleni Dimou - I love you so much (Poso s' agapo)
15. Litsa Diamanti - Lonely people (Anthropi monahi)

Exact Audio Copy V1.0 beta 3 from 29. August 2011

EAC extraction logfile from 13. January 2013, 3:35

Various Artists / Ola gyrizoune sto xtes CD1

Used drive : HL-DT-STDVDRAM GH10N Adapter: 1 ID: 1

Read mode : Secure
Utilize accurate stream : Yes
Defeat audio cache : Yes
Make use of C2 pointers : No

Read offset correction : 667
Overread into Lead-In and Lead-Out : No
Fill up missing offset samples with silence : Yes
Delete leading and trailing silent blocks : No
Null samples used in CRC calculations : Yes
Used interface : Native Win32 interface for Win NT & 2000

Used output format : User Defined Encoder
Selected bitrate : 1024 kBit/s
Quality : High
Add ID3 tag : Yes
Command line compressor : C:\Program Files\Exact Audio Copy New\Flac\flac.exe
Additional command line options : -V -5 -T "artist=%artist%" -T "title=%title%" -T "album=%albumtitle%" -T "tracknumber=%tracknr2%" -T "genre=%genre%" -5 %source%


TOC of the extracted CD

Track | Start | Length | Start sector | End sector
––––––––––––––––––––––––––––-
1 | 0:00.00 | 2:39.43 | 0 | 11967
2 | 2:39.43 | 3:56.42 | 11968 | 29709
3 | 6:36.10 | 3:23.73 | 29710 | 45007
4 | 10:00.08 | 3:37.36 | 45008 | 61318
5 | 13:37.44 | 2:53.56 | 61319 | 74349
6 | 16:31.25 | 3:57.68 | 74350 | 92192
7 | 20:29.18 | 3:15.07 | 92193 | 106824
8 | 23:44.25 | 3:30.49 | 106825 | 122623
9 | 27:14.74 | 2:57.11 | 122624 | 135909
10 | 30:12.10 | 2:40.34 | 135910 | 147943
11 | 32:52.44 | 2:40.11 | 147944 | 159954
12 | 35:32.55 | 2:23.23 | 159955 | 170702
13 | 37:56.03 | 3:23.37 | 170703 | 185964
14 | 41:19.40 | 3:16.74 | 185965 | 200738
15 | 44:36.39 | 3:31.33 | 200739 | 216596


Range status and errors

Selected range

Filename S:\MUSIC\Uploaded\GREEK\Ola gyrizoune sto xtes (3CD)\OlaXtes1\Various Artists - Ola gyrizoune sto xtes CD1.wav

Peak level 96.5 %
Extraction speed 3.1 X
Range quality 99.9 %
Test CRC 4018DED9
Copy CRC 4018DED9
Copy OK

No errors occurred


AccurateRip summary

Track 1 not present in database
Track 2 not present in database
Track 3 not present in database
Track 4 not present in database
Track 5 not present in database
Track 6 not present in database
Track 7 not present in database
Track 8 not present in database
Track 9 not present in database
Track 10 not present in database
Track 11 not present in database
Track 12 not present in database
Track 13 not present in database
Track 14 not present in database
Track 15 not present in database

None of the tracks are present in the AccurateRip database

End of status report

–– CUETools DB Plugin V2.1.3

[CTDB TOCID: s12Ztg4ABFtSvKE1QcqitC8fNfg-] disk not present in database, Submit result: s12Ztg4ABFtSvKE1QcqitC8fNfg- has been uploaded


==== Log checksum E6733AF248276FEA425F622BE650CBA93EE36B0A86CAFD692091F3BB63FE1263 ====

Exact Audio Copy V1.0 beta 3 from 29. August 2011

EAC extraction logfile from 13. January 2013, 4:01

Various Artists / Ola gyrizoune sto xtes CD2

Used drive : HL-DT-STDVDRAM GH10N Adapter: 1 ID: 1

Read mode : Secure
Utilize accurate stream : Yes
Defeat audio cache : Yes
Make use of C2 pointers : No

Read offset correction : 667
Overread into Lead-In and Lead-Out : No
Fill up missing offset samples with silence : Yes
Delete leading and trailing silent blocks : No
Null samples used in CRC calculations : Yes
Used interface : Native Win32 interface for Win NT & 2000

Used output format : User Defined Encoder
Selected bitrate : 1024 kBit/s
Quality : High
Add ID3 tag : Yes
Command line compressor : C:\Program Files\Exact Audio Copy New\Flac\flac.exe
Additional command line options : -V -5 -T "artist=%artist%" -T "title=%title%" -T "album=%albumtitle%" -T "tracknumber=%tracknr2%" -T "genre=%genre%" -5 %source%


TOC of the extracted CD

Track | Start | Length | Start sector | End sector
––––––––––––––––––––––––––––-
1 | 0:00.00 | 3:10.70 | 0 | 14319
2 | 3:10.70 | 2:47.48 | 14320 | 26892
3 | 5:58.43 | 3:57.47 | 26893 | 44714
4 | 9:56.15 | 2:45.46 | 44715 | 57135
5 | 12:41.61 | 3:05.47 | 57136 | 71057
6 | 15:47.33 | 2:58.28 | 71058 | 84435
7 | 18:45.61 | 3:20.59 | 84436 | 99494
8 | 22:06.45 | 2:53.52 | 99495 | 112521
9 | 25:00.22 | 3:09.08 | 112522 | 126704
10 | 28:09.30 | 2:18.52 | 126705 | 137106
11 | 30:28.07 | 2:35.44 | 137107 | 148775
12 | 33:03.51 | 3:12.03 | 148776 | 163178
13 | 36:15.54 | 3:06.61 | 163179 | 177189
14 | 39:22.40 | 3:41.30 | 177190 | 193794


Range status and errors

Selected range

Filename S:\MUSIC\Uploaded\GREEK\Ola gyrizoune sto xtes (3CD)\OlaXtes2\Various Artists - Ola gyrizoune sto xtes CD2.wav

Peak level 96.5 %
Extraction speed 5.4 X
Range quality 99.9 %
Test CRC 92FC073C
Copy CRC 92FC073C
Copy OK

No errors occurred


AccurateRip summary

Track 1 not present in database
Track 2 not present in database
Track 3 not present in database
Track 4 not present in database
Track 5 not present in database
Track 6 not present in database
Track 7 not present in database
Track 8 not present in database
Track 9 not present in database
Track 10 not present in database
Track 11 not present in database
Track 12 not present in database
Track 13 not present in database
Track 14 not present in database

None of the tracks are present in the AccurateRip database

End of status report

–– CUETools DB Plugin V2.1.3

[CTDB TOCID: AyJghE4Ys.7fEEtxtnpltVu7q8Q-] disk not present in database, Submit result: AyJghE4Ys.7fEEtxtnpltVu7q8Q- has been uploaded


==== Log checksum D524D7C68096533E81261FE0DF033F94B31C94836E2B202D01F042FDF6672D14 ====

Exact Audio Copy V1.0 beta 3 from 29. August 2011

EAC extraction logfile from 13. January 2013, 4:37

Various Artists / Ola gyrizoune sto xtes CD3

Used drive : HL-DT-STDVDRAM GH10N Adapter: 1 ID: 1

Read mode : Secure
Utilize accurate stream : Yes
Defeat audio cache : Yes
Make use of C2 pointers : No

Read offset correction : 667
Overread into Lead-In and Lead-Out : No
Fill up missing offset samples with silence : Yes
Delete leading and trailing silent blocks : No
Null samples used in CRC calculations : Yes
Used interface : Native Win32 interface for Win NT & 2000

Used output format : User Defined Encoder
Selected bitrate : 1024 kBit/s
Quality : High
Add ID3 tag : Yes
Command line compressor : C:\Program Files\Exact Audio Copy New\Flac\flac.exe
Additional command line options : -V -5 -T "artist=%artist%" -T "title=%title%" -T "album=%albumtitle%" -T "tracknumber=%tracknr2%" -T "genre=%genre%" -5 %source%


TOC of the extracted CD

Track | Start | Length | Start sector | End sector
––––––––––––––––––––––––––––-
1 | 0:00.00 | 3:59.17 | 0 | 17941
2 | 3:59.17 | 3:25.26 | 17942 | 33342
3 | 7:24.43 | 2:48.66 | 33343 | 46008
4 | 10:13.34 | 3:30.34 | 46009 | 61792
5 | 13:43.68 | 2:36.21 | 61793 | 73513
6 | 16:20.14 | 3:09.56 | 73514 | 87744
7 | 19:29.70 | 3:03.36 | 87745 | 101505
8 | 22:33.31 | 3:02.13 | 101506 | 115168
9 | 25:35.44 | 3:17.18 | 115169 | 129961
10 | 28:52.62 | 2:53.16 | 129962 | 142952
11 | 31:46.03 | 3:22.37 | 142953 | 158139
12 | 35:08.40 | 2:21.57 | 158140 | 168771
13 | 37:30.22 | 2:45.61 | 168772 | 181207
14 | 40:16.08 | 3:06.17 | 181208 | 195174
15 | 43:22.25 | 3:05.62 | 195175 | 209111


Range status and errors

Selected range

Filename S:\MUSIC\Uploaded\GREEK\Ola gyrizoune sto xtes (3CD)\OlaXtes3\Various Artists - Ola gyrizoune sto xtes CD3.wav

Peak level 96.5 %
Extraction speed 5.7 X
Range quality 99.9 %
Test CRC 296CE5D0
Copy CRC 296CE5D0
Copy OK

No errors occurred


AccurateRip summary

Track 1 not present in database
Track 2 not present in database
Track 3 not present in database
Track 4 not present in database
Track 5 not present in database
Track 6 not present in database
Track 7 not present in database
Track 8 not present in database
Track 9 not present in database
Track 10 not present in database
Track 11 not present in database
Track 12 not present in database
Track 13 not present in database
Track 14 not present in database
Track 15 not present in database

None of the tracks are present in the AccurateRip database

End of status report

–– CUETools DB Plugin V2.1.3

[CTDB TOCID: nDlgOcvELOBIZbbdt6Iq_joVjZU-] disk not present in database, Submit result: nDlgOcvELOBIZbbdt6Iq_joVjZU- has been uploaded


==== Log checksum 3119FAD3CD63D7B274D2D643E68BE81B6D1A2D91727D68A46BACA56F9866604F ====