Subcategories

Andy Summers - Charming Snakes (1990)

Posted By: Jansky
Andy Summers - Charming Snakes (1990)


Andy Summers - Charming Snakes (1990)
EAC Rip | FLAC, Tracks + CUE, LOG | 352 MB | MP3 CBR 320 Kbps | 123 MB | Complete Scans | 12 MB
Jazz-rock, fussion | Label: Private Music | Catalog Number: 2069-2-P | RAR 3% Rec. | RS.com, DF.com


As the Police's guitarist, Summers revealed himself as a sophisticated player and sound innovator. His contributions provided the band with its more complex and inventive material. And it was he who introduced the echo unit into their sound, featured on Walking on the Moon
Tracked down at a New York studio, where he is finishing off his fifth, and as of yet untitled solo disc, an elated Summers expresses satisfaction with the results. Over the years, he has changed his sound, moving from the ambient atmospherics of Mysterious Barricades to the tougher jazz-fusion of Charming Snakes.
It shows a personal progression," says Summers, taking a break from the mixing board. "Mysterious Barricades was closer to the demise of the Police and I was just getting my feet back on the ground. Since then I've become bolder with my music and have gotten to where I want to be.
"This new material takes my sound one step further. The writing is the most sophisticated I've ever done. Though it's different from Mysterious Barricades, it shows a definite progression. I didn't feel I could leap from Mysterious Barricades right to Charming Snakes, I like to bring the audience along with me."

Tracklist:

01. Mexico 1920 (4:00)
02. Charming Snakes (5:14)
03. Big Thing (7:07)
04. Rainmaker (6:18)
05. Charis (3:19)
06. Mickey Goes to Africa (4:53)
07. Innocence Falls Prey (2:45)
08. Passion of the Shadow (5:10)
09. Monk Gets Ripped (3:57)
10. Easy on the Ice (4:34)
11. The Strong & The Beautiful (3:49).

The Musicians:

Guitar: Andy Symmers
Saxophones: Bill Evans
Keyboards: Herbie Hancock, Brian Auger, David Hentschel
Bass: Doug Lunn, Sting, Darryl Jones
Drums: Chad Wackerman
Percussion: Ed Mann
Trumpet: Mark Isham

Prod. by Andy Symmers & David Hentschel

Official website

Exact Audio Copy V0.99 prebeta 4 from 23. January 2008

EAC extraction logfile from 25. April 2009, 13:27

Andy Summers / Charming Snakes

Used drive : HL-DT-STRW/DVD GCC-4480B Adapter: 1 ID: 0

Read mode : Secure
Utilize accurate stream : Yes
Defeat audio cache : Yes
Make use of C2 pointers : No

Read offset correction : 6
Overread into Lead-In and Lead-Out : No
Fill up missing offset samples with silence : Yes
Delete leading and trailing silent blocks : No
Null samples used in CRC calculations : No
Used interface : Installed external ASPI interface
Gap handling : Appended to previous track

Used output format : User Defined Encoder
Selected bitrate : 768 kBit/s
Quality : High
Add ID3 tag : No
Command line compressor : C:\Program Files\Exact Audio Copy\FLAC\FLAC.EXE
Additional command line options : -6 -V -T "ARTIST=%a" -T "TITLE=%t" -T "ALBUM=%g" -T "DATE=%y" -T "TRACKNUMBER=%n" -T "GENRE=%m" -T "COMMENT=%e" %s -o %d


TOC of the extracted CD

Track | Start | Length | Start sector | End sector
––––––––––––––––––––––––––––-
1 | 0:00.00 | 4:02.25 | 0 | 18174
2 | 4:02.25 | 5:15.45 | 18175 | 41844
3 | 9:17.70 | 7:11.55 | 41845 | 74224
4 | 16:29.50 | 6:20.62 | 74225 | 102786
5 | 22:50.37 | 3:23.40 | 102787 | 118051
6 | 26:14.02 | 4:55.53 | 118052 | 140229
7 | 31:09.55 | 2:46.42 | 140230 | 152721
8 | 33:56.22 | 5:14.30 | 152722 | 176301
9 | 39:10.52 | 3:59.23 | 176302 | 194249
10 | 43:10.00 | 4:36.20 | 194250 | 214969
11 | 47:46.20 | 3:56.10 | 214970 | 232679


Track 1

Filename D:\Uploads\Andy Summers - 1990 - Charming Snakes\01 - Mexico 1920.wav

Pre-gap length 0:00:02.00

Peak level 100.0 %
Track quality 100.0 %
Copy CRC 1F04F2AD
Accurately ripped (confidence 8) [7E42BCCC]
Copy OK

Track 2

Filename D:\Uploads\Andy Summers - 1990 - Charming Snakes\02 - Charming Snakes.wav

Peak level 91.6 %
Track quality 100.0 %
Copy CRC 90453167
Accurately ripped (confidence 8) [C94EC2D1]
Copy OK

Track 3

Filename D:\Uploads\Andy Summers - 1990 - Charming Snakes\03 - Big Thing.wav

Pre-gap length 0:00:00.68

Peak level 99.3 %
Track quality 99.9 %
Copy CRC C27A8AE1
Accurately ripped (confidence 8) [3C9A83DD]
Copy OK

Track 4

Filename D:\Uploads\Andy Summers - 1990 - Charming Snakes\04 - Rainmaker.wav

Pre-gap length 0:00:01.43

Peak level 98.6 %
Track quality 100.0 %
Copy CRC 83B82779
Accurately ripped (confidence 8) [4ED92914]
Copy OK

Track 5

Filename D:\Uploads\Andy Summers - 1990 - Charming Snakes\05 - Charis.wav

Pre-gap length 0:00:01.07

Peak level 51.8 %
Track quality 99.9 %
Copy CRC C486C038
Accurately ripped (confidence 8) [6BB04E4D]
Copy OK

Track 6

Filename D:\Uploads\Andy Summers - 1990 - Charming Snakes\06 - Mickey Goes To Africa.wav

Peak level 99.9 %
Track quality 100.0 %
Copy CRC 89301473
Accurately ripped (confidence 8) [4C8D1C26]
Copy OK

Track 7

Filename D:\Uploads\Andy Summers - 1990 - Charming Snakes\07 - Innocence Falls Prey.wav

Pre-gap length 0:00:00.50

Peak level 99.9 %
Track quality 100.0 %
Copy CRC 239A55B3
Accurately ripped (confidence 8) [A1674EAF]
Copy OK

Track 8

Filename D:\Uploads\Andy Summers - 1990 - Charming Snakes\08 - Passion of The Shadow.wav

Peak level 81.4 %
Track quality 100.0 %
Copy CRC 9FA170F1
Accurately ripped (confidence 8) [9B5658A5]
Copy OK

Track 9

Filename D:\Uploads\Andy Summers - 1990 - Charming Snakes\09 - Monk Gets Ripped.wav

Pre-gap length 0:00:02.50

Peak level 90.4 %
Track quality 100.0 %
Copy CRC 25A36627
Accurately ripped (confidence 8) [E5995D51]
Copy OK

Track 10

Filename D:\Uploads\Andy Summers - 1990 - Charming Snakes\10 - Easy on The Ice.wav

Pre-gap length 0:00:00.58

Peak level 92.8 %
Track quality 99.9 %
Copy CRC 98601C37
Accurately ripped (confidence 8) [01F77613]
Copy OK

Track 11

Filename D:\Uploads\Andy Summers - 1990 - Charming Snakes\11 - The Strong & The Beautiful.wav

Peak level 95.1 %
Track quality 99.9 %
Copy CRC 7564D744
Accurately ripped (confidence 8) [6A6F7D69]
Copy OK


All tracks accurately ripped

No errors occurred

End of status report


Download Rapidshare:

in Lossless
flac-p1 | flac-p2 | flac-p3 | flac-p4

MP3 lossy files
mp3-p1 | mp3-p2

Artwork
covers

Download Depositfiles:

MP3 lossy files
mp3-p1 | mp3-p2

Artwork
Covers

Don't post mirrors, please