Subcategories

Andy Summers - World Gone Strange (1991)

Posted By: Jansky
Andy Summers - World Gone Strange (1991)

Andy Summers - World Gone Strange (1991)
EAC Rip | FLAC, Tracks + CUE, LOG | 341 MB | MP3 CBR 320 Kbps | 123 MB | Complete Scans | 15 MB
Jazz-rock, fussion | Label: Private Music | Catalog Number: 01005-32088-2 | RAR 3% Rec. | RS.com, DF.com


On his second consecutive solo album of predominantly instrumental music, former Police guitarist Andy Summers paints a richly textured musical portrait that mixes fusion jazz, Latin and various World Beat elements into an engaging whole.
The onetime guitar-slinger for the New Animals and the Kevin Coyne Band is accompanied by a crack group that includes Alan Holdsworth Band drummer Chad Wackerman, ex-King Crimson bassist Tony Levin and short-lived Mahavishnu Orchestra keyboardist Mitchell Forman. They in turn are joined on various tracks by percussionists Manola Badrena and Mino Cinelu, former Steps Ahead malletman Mike Manieri and Miles Davis Band bass veteran Victor Bailey.

Tracklist:
01. World Gone Strange (6:14)
02. Ruffled Feathers (4:23)
03. Bacchante (6:28)
04. Song for M (4:58)
05. Rhythm Spirits (6:03)
06. Somewhere in the West (5:10)
07. But She (4:53)
08. The Blues Prior to Richard (4:47)
09. Oudu Kanjaira (5:15)
10. Dream Trains (1:50).

The Musicians:
Andy Summers: guitar
Tony Levin: bass,
Mitchel Forman: keyboards,
Chad Wackerman: drum
with:
Manolo Badrena, Mino Cinelu, Nana Vasconcelos: percussions,
Victor Bailey: bass on 4,6,
Mike Mainieri: marimba on 9,
Bendik: saxophone on 9,
Eliane Elias: piano, vocals on 1,3.

All compositions by Andy Summers
Prod. by Mike Mainieri

Official website

Exact Audio Copy V0.99 prebeta 4 from 23. January 2008

EAC extraction logfile from 26. March 2009, 9:55

Andy Summers / World Gone Strange

Used drive : HL-DT-STRW/DVD GCC-4480B Adapter: 1 ID: 0

Read mode : Secure
Utilize accurate stream : Yes
Defeat audio cache : Yes
Make use of C2 pointers : No

Read offset correction : 6
Overread into Lead-In and Lead-Out : No
Fill up missing offset samples with silence : Yes
Delete leading and trailing silent blocks : No
Null samples used in CRC calculations : No
Used interface : Installed external ASPI interface
Gap handling : Appended to previous track

Used output format : User Defined Encoder
Selected bitrate : 768 kBit/s
Quality : High
Add ID3 tag : No
Command line compressor : C:\Program Files\Exact Audio Copy\FLAC\FLAC.EXE
Additional command line options : -6 -V -T "ARTIST=%a" -T "TITLE=%t" -T "ALBUM=%g" -T "DATE=%y" -T "TRACKNUMBER=%n" -T "GENRE=%m" -T "COMMENT=%e" %s -o %d


TOC of the extracted CD

Track | Start | Length | Start sector | End sector
––––––––––––––––––––––––––––-
1 | 0:00.00 | 6:31.17 | 0 | 29341
2 | 6:31.17 | 4:29.38 | 29342 | 49554
3 | 11:00.55 | 6:21.47 | 49555 | 78176
4 | 17:22.27 | 5:02.55 | 78177 | 100881
5 | 22:25.07 | 6:10.38 | 100882 | 128669
6 | 28:35.45 | 5:15.57 | 128670 | 152351
7 | 33:51.27 | 5:00.40 | 152352 | 174891
8 | 38:51.67 | 4:50.35 | 174892 | 196676
9 | 43:42.27 | 5:21.03 | 196677 | 220754
10 | 49:03.30 | 1:49.10 | 220755 | 228939


Track 1

Filename D:\Uploads\Andy Summers - 1991 - World Gone Strange\01 - World Gone Strange.wav

Pre-gap length 0:00:02.00

Peak level 97.3 %
Track quality 100.0 %
Copy CRC 98E4228A
Accurately ripped (confidence 4) [6097B3F2]
Copy OK

Track 2

Filename D:\Uploads\Andy Summers - 1991 - World Gone Strange\02 - Ruffled Feathers.wav

Pre-gap length 0:00:00.62

Peak level 97.3 %
Track quality 99.9 %
Copy CRC 1C584703
Accurately ripped (confidence 5) [ECBAC868]
Copy OK

Track 3

Filename D:\Uploads\Andy Summers - 1991 - World Gone Strange\03 - Bacchante.wav

Pre-gap length 0:00:00.23

Peak level 94.9 %
Track quality 100.0 %
Copy CRC E5419FA1
Accurately ripped (confidence 5) [532A6A8D]
Copy OK

Track 4

Filename D:\Uploads\Andy Summers - 1991 - World Gone Strange\04 - Song For M.wav

Pre-gap length 0:00:01.27

Peak level 97.3 %
Track quality 99.9 %
Copy CRC 7DE23A5A
Accurately ripped (confidence 5) [F8485097]
Copy OK

Track 5

Filename D:\Uploads\Andy Summers - 1991 - World Gone Strange\05 - Rhythm Spirits.wav

Pre-gap length 0:00:01.35

Peak level 97.3 %
Track quality 100.0 %
Copy CRC 5599E146
Accurately ripped (confidence 5) [040D2238]
Copy OK

Track 6

Filename D:\Uploads\Andy Summers - 1991 - World Gone Strange\06 - Somewhere In The West.wav

Pre-gap length 0:00:01.48

Peak level 97.2 %
Track quality 99.9 %
Copy CRC D8C68264
Accurately ripped (confidence 5) [06A0C86D]
Copy OK

Track 7

Filename D:\Uploads\Andy Summers - 1991 - World Gone Strange\07 - But She.wav

Pre-gap length 0:00:03.60

Peak level 97.3 %
Track quality 100.0 %
Copy CRC 5A2D36B2
Accurately ripped (confidence 5) [7D71EF69]
Copy OK

Track 8

Filename D:\Uploads\Andy Summers - 1991 - World Gone Strange\08 - The Blues Prior To Richard.wav

Pre-gap length 0:00:02.57

Peak level 97.3 %
Track quality 100.0 %
Copy CRC B06CF7D8
Accurately ripped (confidence 4) [C586A5EE]
Copy OK

Track 9

Filename D:\Uploads\Andy Summers - 1991 - World Gone Strange\09 - Oudu Kanjaira.wav

Pre-gap length 0:00:02.25

Peak level 97.3 %
Track quality 100.0 %
Copy CRC 10529AA5
Accurately ripped (confidence 5) [54B15752]
Copy OK

Track 10

Filename D:\Uploads\Andy Summers - 1991 - World Gone Strange\10 - Dream Trains.wav

Pre-gap length 0:00:00.03

Peak level 52.4 %
Track quality 100.0 %
Copy CRC 685691DC
Accurately ripped (confidence 5) [A4C242CD]
Copy OK


All tracks accurately ripped

No errors occurred

End of status report


Download Rapidshare:

in Lossless
flac.part1 | flac.part2 | flac.part3 | flac.part4

MP3 lossy files
mp3.part1 | mp3.part2

Download Depositfiles:

MP3 lossy files
mp3@320

Artwork
Covers

Don't post mirrors, please