Subcategories

Angela Hewitt - Francois Couperin Keyboard Music Vol. 2 (2004) [Hybrid SACD // EAC Rip]

Posted By: luckburz
 Angela Hewitt - Francois Couperin Keyboard Music Vol. 2 (2004) [Hybrid SACD // EAC Rip]

Francois Couperin - Angela Hewitt - Keyboard Music Vol. 2
EAC+LOG+CUE | FLAC: 239 MB | Full Artwork | 5% Recovery Info
Label/Cat#: Hyperion Records # SACDA67480 | Country/Year: UK 2004
Genre: Classical | Style: Baroque

MD5 [X] CUE [X] LOG [X] INFO TEXT [X] ARTWORK [X]

selfrip [X] not my rip []

 Angela Hewitt - Francois Couperin Keyboard Music Vol. 2 (2004) [Hybrid SACD // EAC Rip]



Exact Audio Copy V1.0 beta 2 from 29. April 2011

EAC extraction logfile from 1. May 2012, 23:16

Angela Hewitt (piano) / Francois Couperin Keyboard Music 2

Used drive : PIONEER BD-RW BDR-206 Adapter: 2 ID: 3

Read mode : Secure
Utilize accurate stream : Yes
Defeat audio cache : Yes
Make use of C2 pointers : No

Read offset correction : 667
Overread into Lead-In and Lead-Out : No
Fill up missing offset samples with silence : Yes
Delete leading and trailing silent blocks : No
Null samples used in CRC calculations : Yes
Used interface : Native Win32 interface for Win NT & 2000

Used output format : User Defined Encoder
Selected bitrate : 896 kBit/s
Quality : High
Add ID3 tag : No
Command line compressor : C:\Program Files\FLAC\flac.exe
Additional command line options : -5 -T "Artist=%artist%" -T "Title=%title%" -T "Album=%albumtitle%" -T "Date=%year%" -T "Tracknumber=%tracknr%" -T "Genre=%genre%" %source% -o %dest%


TOC of the extracted CD

Track | Start | Length | Start sector | End sector
––––––––––––––––––––––––––––-
1 | 0:00.00 | 3:47.17 | 0 | 17041
2 | 3:47.17 | 4:52.43 | 17042 | 38984
3 | 8:39.60 | 1:51.02 | 38985 | 47311
4 | 10:30.62 | 2:30.74 | 47312 | 58635
5 | 13:01.61 | 4:03.69 | 58636 | 76929
6 | 17:05.55 | 3:23.00 | 76930 | 92154
7 | 20:28.55 | 1:45.61 | 92155 | 100090
8 | 22:14.41 | 4:09.47 | 100091 | 118812
9 | 26:24.13 | 2:47.73 | 118813 | 131410
10 | 29:12.11 | 1:48.39 | 131411 | 139549
11 | 31:00.50 | 2:38.40 | 139550 | 151439
12 | 33:39.15 | 7:03.53 | 151440 | 183217
13 | 40:42.68 | 4:38.69 | 183218 | 204136
14 | 45:21.62 | 1:59.72 | 204137 | 213133
15 | 47:21.59 | 4:09.40 | 213134 | 231848
16 | 51:31.24 | 4:17.11 | 231849 | 251134
17 | 55:48.35 | 3:49.15 | 251135 | 268324
18 | 59:37.50 | 3:46.11 | 268325 | 285285
19 | 63:23.61 | 4:19.74 | 285286 | 304784
20 | 67:43.60 | 2:47.42 | 304785 | 317351
21 | 70:31.27 | 2:34.43 | 317352 | 328944


Range status and errors

Selected range

Filename I:\=== VINYL RIPS ===\=== EAC===\X FRESH RIP\Angela Hewitt (piano) - Francois Couperin Keyboard Music 2.wav

Peak level 96.8 %
Extraction speed 2.0 X
Range quality 100.0 %
Test CRC D4EEC710
Copy CRC D4EEC710
Copy OK

No errors occurred


AccurateRip summary

Track 1 accurately ripped (confidence 2) [3D438B3B] (AR v2)
Track 2 accurately ripped (confidence 2) [2465CDD0] (AR v2)
Track 3 accurately ripped (confidence 2) [A0530C94] (AR v2)
Track 4 accurately ripped (confidence 2) [8CADD94F] (AR v2)
Track 5 accurately ripped (confidence 2) [FCDE8EB3] (AR v2)
Track 6 accurately ripped (confidence 2) [CC971897] (AR v2)
Track 7 accurately ripped (confidence 2) [55012AE0] (AR v2)
Track 8 accurately ripped (confidence 2) [29C6067E] (AR v2)
Track 9 accurately ripped (confidence 2) [EAD78C71] (AR v2)
Track 10 accurately ripped (confidence 2) [66156888] (AR v2)
Track 11 accurately ripped (confidence 2) [83CA1133] (AR v2)
Track 12 accurately ripped (confidence 2) [113B3377] (AR v2)
Track 13 accurately ripped (confidence 2) [B29A3F62] (AR v2)
Track 14 accurately ripped (confidence 2) [B7FCFFCE] (AR v2)
Track 15 accurately ripped (confidence 2) [560828EF] (AR v2)
Track 16 accurately ripped (confidence 2) [4CEA4A3D] (AR v2)
Track 17 accurately ripped (confidence 2) [04431ABA] (AR v2)
Track 18 accurately ripped (confidence 2) [55078BBA] (AR v2)
Track 19 accurately ripped (confidence 2) [E523D903] (AR v2)
Track 20 accurately ripped (confidence 2) [27A80E3E] (AR v2)
Track 21 accurately ripped (confidence 2) [9F59FFFC] (AR v2)

All tracks accurately ripped

End of status report

==== Log checksum 0EB6E166D456A74F4673CF1C1A612F8552B08EBC0F6BBFB8A03F9C1AAAE6F730 ====


foobar2000 1.1.7 / Dynamic Range Meter 1.1.1
log date: 2012-05-06 16:46:00

––––––––––––––––––––––––––––––––––––––––
Analyzed: Angela Hewitt / Francois Couperin - Pieces de Clavecin
––––––––––––––––––––––––––––––––––––––––

DR Peak RMS Duration Track
––––––––––––––––––––––––––––––––––––––––
DR14 -1.29 dB -19.53 dB 3:49 01-La Visionaire
DR12 -5.19 dB -22.52 dB 4:53 02-La Misterieuse
DR12 -6.59 dB -22.34 dB 1:51 03-La Monflambert
DR12 -0.83 dB -17.46 dB 2:31 04-La Muse Victorieuse
DR13 -6.99 dB -24.81 dB 4:04 05-Les Ombres Errantes
DR13 -6.45 dB -23.51 dB 3:23 06-La Reine des coeurs
DR12 -3.80 dB -19.26 dB 1:46 07-La Bondissante
DR12 -5.02 dB -22.38 dB 4:10 08-La Couperin
DR11 -5.31 dB -19.56 dB 2:48 09-La Harpee
DR11 -5.08 dB -22.56 dB 1:49 10-La Petite Pince-sans-rire
DR11 -5.42 dB -22.14 dB 2:39 11-Les Dars-homicides
DR12 -2.54 dB -19.60 dB 7:04 12-L'Amphibie
DR12 -6.48 dB -22.47 dB 4:39 13-La Convalescente
DR12 -6.05 dB -21.32 dB 2:00 14-Gavote
DR12 -6.50 dB -23.09 dB 4:10 15-La Sophie
DR12 -5.11 dB -22.94 dB 4:17 16-L'Epineuse
DR12 -2.19 dB -17.81 dB 3:49 17-La Pantomime
DR12 -6.46 dB -22.22 dB 3:46 18-L'Exquise
DR13 -2.90 dB -23.22 dB 4:20 19-Les Pavots
DR14 -0.29 dB -18.66 dB 2:48 20-Les Chinois
DR11 -2.62 dB -18.35 dB 2:35 21-Saillie
––––––––––––––––––––––––––––––––––––––––

Number of tracks: 21
Official DR value: DR12

Samplerate: 88200 Hz
Channels: 2
Bits per sample: 24
Bitrate: 2313 kbps
Codec: FLAC
================================================================================



CD Info:

François 'Le Grand' Couperin (1668-1733) - Keyboard Music, Vol. 2

Angela Hewitt (piano)

Label: Hyperion Records
Catalog#: SACDA67480
Format: Hybrid-SACD, Album, Stereo, Multichannel
Country: UK
Released: 2004
Genre: Classical

Tracklist:

Pièces de clavecin, Book 4

1 25e Ordre No 1: La visionaire [3'47]
2 25e Ordre No 2: La misterieuse [4'52]
3 25e Ordre No 3: La Monflambert [1'51]
4 25e Ordre No 4: La muse victorieuse [2'30]
5 25e Ordre No 5: Les ombres errantes [4'03]
6 21e Ordre No 1: La reine des cœurs [3'22]
7 21e Ordre No 2: La bondissante [1'45]
8 21e Ordre No 3: La Couperin [4'09]
9 21e Ordre No 4: La harpée [2'47]
10 21e Ordre No 5: La petite pince-sans-rire [1'48]
11 24e Ordre No 3: Les dars-homicides [2'38]
12 24e Ordre No 8: L'amphibie [7'03]
13 26e Ordre No 1: La convalescente [4'38]
14 26e Ordre No 2: Gavote [1'59]
15 26e Ordre No 3: La Sophie [4'09]
16 26e Ordre No 4: L'epineuse [4'17]
17 26e Ordre No 5: La pantomime [3'49]
18 27e Ordre No 1: L'exquise [3'46]
19 27e Ordre No 2: Les pavots [4'19]
20 27e Ordre No 3: Les Chinois [2'47]
21 27e Ordre No 4: Saillie [2'34]

Notes:

Recording details: July 2003
Henry Wood Hall, London, United Kingdom
Produced by Ludger Böckenhoff
Engineered by Ludger Böckenhoff
Release date: March 2004
Total duration: 72 minutes 53 seconds

 Angela Hewitt - Francois Couperin Keyboard Music Vol. 2 (2004) [Hybrid SACD // EAC Rip]


'Hewitt's playing is equally representative of her general approach to his music. Her touch is amazingly light, incredibly crisp and alert to the possibilities afforded by the piano' (Gramophone)

'Hewitt chooses to approach these works with a reverent bow both to the composer and the instrument that inspired him, never making excessive use of dynamics, and keeping the gestures in a deliberately narrow emotional scope. Her musicality is always present but never blatantly displayed, emotions kept in check with refined restraint. In this economy of means, she seems to mirror Couperin's writing itself' (Fanfare, USA)

'For someone of Angela Hewitt's pulling power to invite her fans so enticingly down so unfashionable a path - a poncy ancien régime twiddler? And on the piano! - is brave; and it's right' (BBC Music Magazine)

'In the expert hands of Angela Hewitt, François 'Le Grand' Couperin makes as easy a transition from harpsichord to piano as has Bach. The difference is that many people may - and should - now be listening to Couperin for the first time. Following the huge success of Hewitt's first volume of Couperin keyboard works [Hyperion CDA67440} - a selection from Books II and III of his Pieces de Clavecin, including the captivating 'Les Barricades Mystérieuses' - Hewitt now adds 21 more works from five 'Ordres' of Book IV, ranging from tranquil lyricism to full-blooded bragadoccio. Here is keyboard-playing of the highest order, in unfamiliar repertoire long due a sympathetic hearing.' (The Guardian)

'Wit, tenderness, and sensibility - these essential elements of the Couperin style Hewitt provides with grace and scholarly affection, her Steinway piano singing in glorious Technicolor' (Audiophile Audition)

You can find the SACD ISO here:SACD

________________

Download:

FLAC

Artwork
________________