Subcategories

Anna Netrebko - Verismo (2016) {Deutsche Grammophon}

Posted By: shamanicus
Anna Netrebko - Verismo (2016) {Deutsche Grammophon}

Anna Netrebko - Verismo (2016)
EAC Rip | FLAC (tracks+.cue, log) | Front+digital booklet | RAR | 296 mb
Classical, Opera | Label: Deutsche Grammophon - 479 5015 GH

It’s no secret that soprano Anna Netrebko is one of opera’s true box office draws: Her performances of Il Trovatore last season were among the few nights the Met was completely sold out. But her new CD, Verismo, reveals she is more than just a star; her performances of arias and scenes from Italian opera highlight an artistry that is both subtle and thrilling.

The verismo era flourished a little more than a century ago, when composers like Giacomo Puccini, Umberto Giordano and Alfredo Catalani crafted an operatic style melding elements of Wagnerian harmony with the free declamatory style of the French opéra comique. The subject matter was originally everyday life - verismo means something like reality - but composers quickly shifted their focus to adaptations of the sexy melodramas then popular in spoken theater.

Tracklist:

01. Ecco: Respiro Appena … Io Son L'umile Ancella (03:43)
02. La Mamma Morta (04:59)
03. Un Bel Dì Vedremo (04:32)
04. Signore, Ascolta! (02:39)
05. Qual Fiamma Avea Nel Guardo! … Stridono Lassù (04:32)
06. Ebben? Ne Andrò Lontana (03:55)
07. L'altra Notte In Fondo Al Mare (06:53)
08. Suicidio! In Questi Fieri Momenti (04:35)
09. Vissi D'arte, Vissi D'amore (03:27)
10. In Questa Reggia (06:12)
11. In Quelle Trine Morbide (02:48)
12. Tutta Su Me Ti Posa (02:56)
13. Manon, Senti, Amor Mio (01:59)
14. Sei Tu Che Piangi? (04:38)
15. Sola Perduta, Abbandonata (04:25)
16. Fra Le Tue Braccia Amore (06:42)

Credits
Choir – Coro dell'Accademia Nazionale di Santa Cecilia (tracks: 10)
Composed By – Alfredo Catalani (tracks: 6), Amilcare Ponchielli (tracks: 8), Arrigo Boito (tracks: 7), Francesco Cilea (tracks: 1), Giacomo Puccini (tracks: 3, 4, 9 to 16), Ruggiero Leoncavallo (tracks: 5), Umberto Giordano (tracks: 2)
Conductor – Antonio Pappano
Engineer – Philip Krause, Stephan Flock
Executive Producer – Ute Fesquet
Orchestra – Orchestra dell'Accademia Nazionale di Santa Cecilia
Producer – Sid McLauchlan
Soprano Vocals – Anna Netrebko

Tenor Vocals – Yusif Eyvazov (tracks: 10, 12 to 14, 16)

Notes
Recordings: Auditorium Parco della Musica, Sala Santa Cecilia, Roma, Italy, 7 & 10/2015; 6/2016

Exact Audio Copy V1.3 from 2. September 2016

EAC extraction logfile from 21. January 2017, 14:05

Anna Netrebko / Verismo

Used drive : ATAPI DVD A DH16AAL Adapter: 1 ID: 0

Read mode : Secure
Utilize accurate stream : Yes
Defeat audio cache : Yes
Make use of C2 pointers : No

Read offset correction : 6
Overread into Lead-In and Lead-Out : No
Fill up missing offset samples with silence : Yes
Delete leading and trailing silent blocks : No
Null samples used in CRC calculations : Yes
Used interface : Native Win32 interface for Win NT & 2000
Gap handling : Appended to previous track

Used output format : User Defined Encoder
Selected bitrate : 1024 kBit/s
Quality : High
Add ID3 tag : No
Command line compressor : C:\Program Files (x86)\Exact Audio Copy\Flac\flac.exe
Additional command line options : -8 -e -p -V -T "ARTIST=%artist%" -T "TITLE=%title%" -T "ALBUM=%albumtitle%" -T "DATE=%year%" -T "TRACKNUMBER=%tracknr%" -T "GENRE=%genre%" -T "PERFORMER=%albuminterpret%" -T "COMPOSER=%composer%" %haslyrics%–tag-from-file=LYRICS="%lyricsfile%"%haslyrics% -T "ALBUMARTIST=%albumartist%" -T "DISCNUMBER=%cdnumber%" -T "TOTALDISCS=%totalcds%" -T "TOTALTRACKS=%numtracks%" -T "COMMENT=%comment%" %source% -o %dest%


TOC of the extracted CD

Track | Start | Length | Start sector | End sector
––––––––––––––––––––––––––––-
1 | 0:00.00 | 3:42.67 | 0 | 16716
2 | 3:42.67 | 4:58.72 | 16717 | 39138
3 | 8:41.64 | 4:31.58 | 39139 | 59521
4 | 13:13.47 | 2:38.64 | 59522 | 71435
5 | 15:52.36 | 4:31.50 | 71436 | 91810
6 | 20:24.11 | 3:54.52 | 91811 | 109412
7 | 24:18.63 | 6:52.55 | 109413 | 140367
8 | 31:11.43 | 4:34.64 | 140368 | 160981
9 | 35:46.32 | 3:26.69 | 160982 | 176500
10 | 39:13.26 | 6:12.17 | 176501 | 204417
11 | 45:25.43 | 2:47.59 | 204418 | 217001
12 | 48:13.27 | 2:55.40 | 217002 | 230166
13 | 51:08.67 | 1:59.12 | 230167 | 239103
14 | 53:08.04 | 4:37.53 | 239104 | 259931
15 | 57:45.57 | 4:25.31 | 259932 | 279837
16 | 62:11.13 | 6:42.31 | 279838 | 310018


Track 1

Filename C:\EAC RIPS\Anna Netrebko - Verismo (2016) [FLAC] {4795015}\01 - Anna Netrebko With Antonio Pappano & Orchestra - Adriana Lecouvreur- Act I- Io Son L'umile Ancella.wav

Pre-gap length 0:00:02.00

Peak level 84.0 %
Extraction speed 1.7 X
Track quality 100.0 %
Test CRC 246FC99F
Copy CRC 246FC99F
Cannot be verified as accurate (confidence 8) [DF9638B0], AccurateRip returned [E369D54B] (AR v2)
Copy OK

Track 2

Filename C:\EAC RIPS\Anna Netrebko - Verismo (2016) [FLAC] {4795015}\02 - Anna Netrebko With Antonio Pappano & Orchestra - Andrea Chénier- Act III- La Mamma Morta.wav

Peak level 97.8 %
Extraction speed 2.0 X
Track quality 100.0 %
Test CRC C07A1279
Copy CRC C07A1279
Cannot be verified as accurate (confidence 8) [D2C292E0], AccurateRip returned [87DCC046] (AR v2)
Copy OK

Track 3

Filename C:\EAC RIPS\Anna Netrebko - Verismo (2016) [FLAC] {4795015}\03 - Anna Netrebko With Antonio Pappano & Orchestra - Madama Butterfly- Act II- Un Bel Dì Vedremo.wav

Pre-gap length 0:00:00.01

Peak level 83.0 %
Extraction speed 2.2 X
Track quality 100.0 %
Test CRC 734C6EB3
Copy CRC 734C6EB3
Cannot be verified as accurate (confidence 8) [86CA40A5], AccurateRip returned [FFB79DD6] (AR v2)
Copy OK

Track 4

Filename C:\EAC RIPS\Anna Netrebko - Verismo (2016) [FLAC] {4795015}\04 - Anna Netrebko With Antonio Pappano & Orchestra - Turandot- Act I- Signore, Ascolta!.wav

Pre-gap length 0:00:00.01

Peak level 72.1 %
Extraction speed 2.2 X
Track quality 100.0 %
Test CRC CD2213C4
Copy CRC CD2213C4
Cannot be verified as accurate (confidence 8) [50D58C87], AccurateRip returned [5C5E8516] (AR v2)
Copy OK

Track 5

Filename C:\EAC RIPS\Anna Netrebko - Verismo (2016) [FLAC] {4795015}\05 - Anna Netrebko With Antonio Pappano & Orchestra - Pagliacci- Act I- Qual Fiamma Avea Nel Guardo!…Stridono Lassù.wav

Pre-gap length 0:00:00.01

Peak level 77.2 %
Extraction speed 2.5 X
Track quality 100.0 %
Test CRC AA620838
Copy CRC AA620838
Cannot be verified as accurate (confidence 8) [1F459E2E], AccurateRip returned [CC889A72] (AR v2)
Copy OK

Track 6

Filename C:\EAC RIPS\Anna Netrebko - Verismo (2016) [FLAC] {4795015}\06 - Anna Netrebko With Antonio Pappano & Orchestra - La Wally- Act I- Ebben…Ne Andrò Lontana.wav

Pre-gap length 0:00:00.01

Peak level 97.8 %
Extraction speed 1.9 X
Track quality 99.9 %
Test CRC 78869894
Copy CRC 78869894
Cannot be verified as accurate (confidence 8) [A322D8DE], AccurateRip returned [3AF37325] (AR v2)
Copy OK

Track 7

Filename C:\EAC RIPS\Anna Netrebko - Verismo (2016) [FLAC] {4795015}\07 - Anna Netrebko With Antonio Pappano & Orchestra - Mefistofele- Act III- L'altra Notte In Fondo Al Mare.wav

Pre-gap length 0:00:00.01

Peak level 97.9 %
Extraction speed 2.9 X
Track quality 100.0 %
Test CRC 835B4906
Copy CRC 835B4906
Cannot be verified as accurate (confidence 8) [412CD009], AccurateRip returned [21FED9ED] (AR v2)
Copy OK

Track 8

Filename C:\EAC RIPS\Anna Netrebko - Verismo (2016) [FLAC] {4795015}\08 - Anna Netrebko With Antonio Pappano & Orchestra - La Gioconda- Act IV- Suicidio! In Questi Fieri Momenti.wav

Pre-gap length 0:00:00.01

Peak level 90.3 %
Extraction speed 2.2 X
Track quality 99.9 %
Test CRC 9BF98141
Copy CRC 9BF98141
Cannot be verified as accurate (confidence 8) [69A6C9CB], AccurateRip returned [34067D5F] (AR v2)
Copy OK

Track 9

Filename C:\EAC RIPS\Anna Netrebko - Verismo (2016) [FLAC] {4795015}\09 - Anna Netrebko With Antonio Pappano & Orchestra - Tosca- Act II- Vissi D'arte, Vissi D'amore.wav

Pre-gap length 0:00:00.01

Peak level 95.6 %
Extraction speed 3.0 X
Track quality 100.0 %
Test CRC D0DCF335
Copy CRC D0DCF335
Cannot be verified as accurate (confidence 8) [B081EBF3], AccurateRip returned [D4B6E739] (AR v2)
Copy OK

Track 10

Filename C:\EAC RIPS\Anna Netrebko - Verismo (2016) [FLAC] {4795015}\10 - Yusif Eyvazov & Anna Netrebko With Antonio Pappano & Orchestra - Turandot- Act II- In Questa Reggia.wav

Pre-gap length 0:00:00.01

Peak level 97.9 %
Extraction speed 3.3 X
Track quality 100.0 %
Test CRC 044051AC
Copy CRC 044051AC
Cannot be verified as accurate (confidence 8) [5ADC8B6C], AccurateRip returned [EFA6585E] (AR v2)
Copy OK

Track 11

Filename C:\EAC RIPS\Anna Netrebko - Verismo (2016) [FLAC] {4795015}\11 - Anna Netrebko With Antonio Pappano & Orchestra - Manon Lescaut- Act II- In Quelle Trine Morbide.wav

Pre-gap length 0:00:00.01

Peak level 94.4 %
Extraction speed 3.1 X
Track quality 100.0 %
Test CRC 790C76FD
Copy CRC 790C76FD
Cannot be verified as accurate (confidence 8) [8E6CF425], AccurateRip returned [C4E3DD6C] (AR v2)
Copy OK

Track 12

Filename C:\EAC RIPS\Anna Netrebko - Verismo (2016) [FLAC] {4795015}\12 - Yusif Eyvazov & Anna Netrebko With Antonio Pappano & Orchestra - Manon Lescaut- Act IV- Tutta Su Me Ti Posa.wav

Pre-gap length 0:00:00.01

Peak level 97.7 %
Extraction speed 3.2 X
Track quality 100.0 %
Test CRC BE6CE08A
Copy CRC BE6CE08A
Cannot be verified as accurate (confidence 8) [3F10C8C9], AccurateRip returned [ECD0A4EF] (AR v2)
Copy OK

Track 13

Filename C:\EAC RIPS\Anna Netrebko - Verismo (2016) [FLAC] {4795015}\13 - Yusif Eyvazov & Anna Netrebko With Antonio Pappano & Orchestra - Manon Lescaut- Act IV- Manon, Senti, Amor Mio.wav

Pre-gap length 0:00:00.01

Peak level 64.5 %
Extraction speed 1.8 X
Track quality 99.9 %
Test CRC D0BF6C03
Copy CRC D0BF6C03
Cannot be verified as accurate (confidence 8) [4019973A], AccurateRip returned [0BEB5B68] (AR v2)
Copy OK

Track 14

Filename C:\EAC RIPS\Anna Netrebko - Verismo (2016) [FLAC] {4795015}\14 - Yusif Eyvazov & Anna Netrebko With Antonio Pappano & Orchestra - Manon Lescaut- Act IV- Sei Tu Che Piangi.wav

Pre-gap length 0:00:00.01

Peak level 98.2 %
Extraction speed 3.6 X
Track quality 100.0 %
Test CRC F6969ECC
Copy CRC F6969ECC
Cannot be verified as accurate (confidence 8) [676B9E32], AccurateRip returned [6184E606] (AR v2)
Copy OK

Track 15

Filename C:\EAC RIPS\Anna Netrebko - Verismo (2016) [FLAC] {4795015}\15 - Anna Netrebko With Antonio Pappano & Orchestra - Manon Lescaut- Act IV- Sola, Perduta, Abbandonata.wav

Pre-gap length 0:00:00.01

Peak level 98.2 %
Extraction speed 3.7 X
Track quality 100.0 %
Test CRC A52B66D2
Copy CRC A52B66D2
Cannot be verified as accurate (confidence 8) [CF786135], AccurateRip returned [84560A58] (AR v2)
Copy OK

Track 16

Filename C:\EAC RIPS\Anna Netrebko - Verismo (2016) [FLAC] {4795015}\16 - Yusif Eyvazov & Anna Netrebko With Antonio Pappano & Orchestra - Manon Lescaut- Act IV- Fra Le Tue Braccia Amore.wav

Pre-gap length 0:00:00.01

Peak level 97.7 %
Extraction speed 3.2 X
Track quality 99.9 %
Test CRC 237BEAEF
Copy CRC 237BEAEF
Cannot be verified as accurate (confidence 8) [6595A279], AccurateRip returned [4970D69D] (AR v2)
Copy OK


No tracks could be verified as accurate
You may have a different pressing from the one(s) in the database

No errors occurred

End of status report

–– CUETools DB Plugin V2.1.6

[CTDB TOCID: W57PH9P5cVMaKU.VjIjnGMy5rmY-] found
Submit result: W57PH9P5cVMaKU.VjIjnGMy5rmY- has been confirmed
Track | CTDB Status
1 | (79/79) Accurately ripped
2 | (79/79) Accurately ripped
3 | (79/79) Accurately ripped
4 | (79/79) Accurately ripped
5 | (79/79) Accurately ripped
6 | (79/79) Accurately ripped
7 | (79/79) Accurately ripped
8 | (79/79) Accurately ripped
9 | (79/79) Accurately ripped
10 | (79/79) Accurately ripped
11 | (79/79) Accurately ripped
12 | (79/79) Accurately ripped
13 | (79/79) Accurately ripped
14 | (79/79) Accurately ripped
15 | (79/79) Accurately ripped
16 | (79/79) Accurately ripped


==== Log checksum 16C9322C7E5D932CC4EA893C00586EE1FDE95B3B15BB67D9D0E01309F2BA7844 ====


Thanks to the Original customer.