Subcategories

Anthony Wilson - Campo Belo (2010)

Posted By: Domestos
Anthony Wilson - Campo Belo (2010)

Anthony Wilson - Campo Belo (2010)
EAC Rip | FLAC (tracks+.cue, log) ~ 304.27 Mb | 58:25 | Covers
Post-Bop, Contemporary Jazz, Modern Creative | Label: Goat Hill Recordings - GHR 002-A

The 2011 CD by guitarist Anthony Wilson is a gentle, thoughtful collection of tunes for guitar, piano (and sometimes accordion), bass, and drums, plus the occasional dash of clarinet. It's sunny, pleasant music that could easily have been released on ECM. Wilson's ultra-clean playing style falls into the Jim Hall/Joe Morris range, which makes it simultaneously quite pretty and kind of forgettable once the track in question is finished playing itself out. A little more of a Grant Green-style bite might have made this record more than a nice soundtrack to a late spring brunch. That's the problem with so much Brazilian music, though, it's so light and fluffy, it just drifts away while you're listening to it. Jazz listeners who aren't looking for a record that will sink its claws into their heart and never let go, or leave them breathless in the face of its virtuosity, but who, instead, just want to hear some nice, pretty songs for an hour or so could do a whole lot worse than this very well played, carefully arranged, and impeccably produced set of tunes. ~ AllMusic Review by Phil Freeman



Track List:
01. Campo Belo (Wilson) - 7:35
02. March to March (Wilson) - 7:12
03. Edu (Wilson) - 4:24
04. After the Flood (Wilson) - 5:34
05. Patrimonio (Wilson) - 2:39
06. Elyria (Wilson) - 6:31
07. Valsacatu (Wilson) - 5:35
08. Flor de Sumare (Wilson) - 6:19
09. Etna (Wilson) - 5:41
10. Transitron (Wilson) - 6:55

Anthony Wilson - guitar
Andre Mehmari - piano, accordion
Guto Wirtti - bass
Edu Ribeiro - drums
Joana Queiroz - clarinet
Vitor Goncalves - accordion

Recorded at Na Cena Studios, Sao Paulo in September 2010.

Anthony Wilson - Campo Belo (2010)

Exact Audio Copy V1.3 from 2. September 2016

EAC extraction logfile from 17. July 2018, 8:50

Anthony Wilson / Campo Belo

Used drive : Dell DVD+/-RW DW316 Adapter: 1 ID: 0

Read mode : Secure
Utilize accurate stream : Yes
Defeat audio cache : Yes
Make use of C2 pointers : No

Read offset correction : 6
Overread into Lead-In and Lead-Out : No
Fill up missing offset samples with silence : Yes
Delete leading and trailing silent blocks : No
Null samples used in CRC calculations : Yes
Used interface : Native Win32 interface for Win NT & 2000
Gap handling : Appended to previous track

Used output format : User Defined Encoder
Selected bitrate : 1024 kBit/s
Quality : High
Add ID3 tag : No
Command line compressor : C:\Program Files (x86)\Exact Audio Copy\Flac\flac.exe
Additional command line options : -8 -e -p -V -T "ARTIST=%artist%" -T "TITLE=%title%" -T "ALBUM=%albumtitle%" -T "DATE=%year%" -T "TRACKNUMBER=%tracknr%" -T "GENRE=%genre%" -T "PERFORMER=%albuminterpret%" -T "COMPOSER=%composer%" %haslyrics%–tag-from-file=LYRICS="%lyricsfile%"%haslyrics% -T "ALBUMARTIST=%albumartist%" -T "DISCNUMBER=%cdnumber%" -T "TOTALDISCS=%totalcds%" -T "TOTALTRACKS=%numtracks%" -T "COMMENT=%comment%" %source% -o %dest%


TOC of the extracted CD

Track | Start | Length | Start sector | End sector
––––––––––––––––––––––––––––-
1 | 0:00.00 | 7:34.65 | 0 | 34114
2 | 7:34.65 | 7:11.67 | 34115 | 66506
3 | 14:46.57 | 4:23.70 | 66507 | 86301
4 | 19:10.52 | 5:34.17 | 86302 | 111368
5 | 24:44.69 | 2:38.42 | 111369 | 123260
6 | 27:23.36 | 6:30.59 | 123261 | 152569
7 | 33:54.20 | 5:34.43 | 152570 | 177662
8 | 39:28.63 | 6:18.70 | 177663 | 206082
9 | 45:47.58 | 5:40.39 | 206083 | 231621
10 | 51:28.22 | 6:54.48 | 231622 | 262719


Track 1

Filename C:\EAC\Dropbox\Anthony Wilson - Campo Belo (2011) [FLAC] {GHR002-A}\01. Campo Belo.wav

Pre-gap length 0:00:02.00

Peak level 99.8 %
Extraction speed 1.2 X
Track quality 100.0 %
Test CRC F302B20A
Copy CRC F302B20A
Accurately ripped (confidence 3) [3732CB6A] (AR v2)
Copy OK

Track 2

Filename C:\EAC\Dropbox\Anthony Wilson - Campo Belo (2011) [FLAC] {GHR002-A}\02. March to March.wav

Peak level 97.0 %
Extraction speed 1.5 X
Track quality 100.0 %
Test CRC 1BED3F43
Copy CRC 1BED3F43
Accurately ripped (confidence 3) [A9A1430A] (AR v2)
Copy OK

Track 3

Filename C:\EAC\Dropbox\Anthony Wilson - Campo Belo (2011) [FLAC] {GHR002-A}\03. Edu.wav

Peak level 92.4 %
Extraction speed 1.4 X
Track quality 99.9 %
Test CRC DAB463BF
Copy CRC DAB463BF
Accurately ripped (confidence 3) [C8C4F37B] (AR v2)
Copy OK

Track 4

Filename C:\EAC\Dropbox\Anthony Wilson - Campo Belo (2011) [FLAC] {GHR002-A}\04. After the Flood.wav

Peak level 99.8 %
Extraction speed 1.7 X
Track quality 100.0 %
Test CRC 50B90209
Copy CRC 50B90209
Accurately ripped (confidence 3) [28A9FF93] (AR v2)
Copy OK

Track 5

Filename C:\EAC\Dropbox\Anthony Wilson - Campo Belo (2011) [FLAC] {GHR002-A}\05. Patrimonio.wav

Peak level 75.2 %
Extraction speed 1.6 X
Track quality 100.0 %
Test CRC 208343DF
Copy CRC 208343DF
Accurately ripped (confidence 3) [98D281E0] (AR v2)
Copy OK

Track 6

Filename C:\EAC\Dropbox\Anthony Wilson - Campo Belo (2011) [FLAC] {GHR002-A}\06. Elyria.wav

Peak level 68.5 %
Extraction speed 1.8 X
Track quality 99.9 %
Test CRC 0370CF36
Copy CRC 0370CF36
Accurately ripped (confidence 3) [9FE23E8A] (AR v2)
Copy OK

Track 7

Filename C:\EAC\Dropbox\Anthony Wilson - Campo Belo (2011) [FLAC] {GHR002-A}\07. Valsacatu.wav

Peak level 99.8 %
Extraction speed 0.2 X
Track quality 99.5 %
Test CRC F9B8E806
Copy CRC F9B8E806
Accurately ripped (confidence 3) [D2D06ACA] (AR v2)
Copy OK

Track 8

Filename C:\EAC\Dropbox\Anthony Wilson - Campo Belo (2011) [FLAC] {GHR002-A}\08. Flor de Sumaré.wav

Peak level 99.8 %
Extraction speed 2.2 X
Track quality 100.0 %
Test CRC 57C6C056
Copy CRC 57C6C056
Accurately ripped (confidence 3) [01F30F4C] (AR v2)
Copy OK

Track 9

Filename C:\EAC\Dropbox\Anthony Wilson - Campo Belo (2011) [FLAC] {GHR002-A}\09. Etna.wav

Peak level 85.1 %
Extraction speed 2.3 X
Track quality 100.0 %
Test CRC 016C6A28
Copy CRC 016C6A28
Accurately ripped (confidence 3) [36F22579] (AR v2)
Copy OK

Track 10

Filename C:\EAC\Dropbox\Anthony Wilson - Campo Belo (2011) [FLAC] {GHR002-A}\10. Transitron.wav

Peak level 99.8 %
Extraction speed 2.2 X
Track quality 99.9 %
Test CRC 51CCE94F
Copy CRC 51CCE94F
Accurately ripped (confidence 3) [ACE10949] (AR v2)
Copy OK


All tracks accurately ripped

No errors occurred

End of status report

–– CUETools DB Plugin V2.1.6

[CTDB TOCID: NgvSs2B_.od.BLwL0G9NN0WRORY-] found
Submit result: NgvSs2B_.od.BLwL0G9NN0WRORY- has been confirmed
Track | CTDB Status
1 | (3/3) Accurately ripped
2 | (3/3) Accurately ripped
3 | (3/3) Accurately ripped
4 | (3/3) Accurately ripped
5 | (3/3) Accurately ripped
6 | (3/3) Accurately ripped
7 | (3/3) Accurately ripped
8 | (3/3) Accurately ripped
9 | (3/3) Accurately ripped
10 | (3/3) Accurately ripped


==== Log checksum 903CEA1B7FF0E625575D5AA2259FADD87C9841F4AE46765076F5E1883E5C3143 ====

All thanks go to the talzer

More Music in My Blog
Follow My RSS Channel