Subcategories

Antoine Rencontre Les Problemes 1966 (Release 1995)

Posted By: MrMushroom16
Antoine Rencontre Les Problemes 1966 (Release 1995)

Antoine Rencontre Les Problemes 1966 (Release 1995)
French Sixties Beat | FLAC(tracks)+CUE+LOG+Scans | Magic Rds | Lossless | 50:05 | 321 MB

Antoine Rencontre Les Problemes (1995 French exclusive limited edition 19-track CD album, remastered in High Definition 20-Bit (French sixties EP & LP collection).
Originally released in 1966, Antoine was France's premier folk-singer in the 60s, and Les Problemes were one of the top beat bands - this was the result when they joined forces, a superb mixture of folk-rock and fuzz-riddled garage punk, including the stand-out 'Dodecaphonie' and 'Je Ne Vois Rien', plus 5 bonus recordings, comprising material released as Les Charlots.

Tracks:
01.Contre-Elucubrations Problèmatiques
02.Des Lendemains
03.Pop Jerk
04.Ce Monde Existe
05.Dodécaphonie
06.Je Ne Vois Rien
07.Ballade A Luis Rego, Prisonnier Politique
08.On S'En Fou
09.Pas Adieu
10.S'Il Boude
11.Si C'Est La Nuit
12.Il Suffirait D'Un Rien
13.Passe Ton Chemin
14.Je Dis Ce Que Je Pense Et Je Vis Comme Je Veux
15.Je Dis N'Importe Quoi, Je Fais Tout Ce Qu'On Me Dit
16.Quand Je Pense A Toi (Instrumental)
17.Psychose (Toujours) (Instrumental)
18.Pas De Problèmes (Instrumental)
19.Hey Max (Hey Joe)

Exact Audio Copy V0.99 prebeta 5 from 4. May 2009

EAC extraction logfile from 27. December 2010, 21:20

Antoine Rencontre Les Problèmes (1966) (Plus Bonus) / Antoine Rencontre Les Problèmes

Used drive : HL-DT-STDVDRAM GH60N Adapter: 2 ID: 1

Read mode : Secure
Utilize accurate stream : Yes
Defeat audio cache : Yes
Make use of C2 pointers : No

Read offset correction : 667
Overread into Lead-In and Lead-Out : No
Fill up missing offset samples with silence : Yes
Delete leading and trailing silent blocks : No
Null samples used in CRC calculations : Yes
Used interface : Native Win32 interface for Win NT & 2000
Gap handling : Appended to previous track

Used output format : User Defined Encoder
Selected bitrate : 768 kBit/s
Quality : High
Add ID3 tag : No
Command line compressor : C:\Program Files (x86)\Exact Audio Copy\FLAC\FLAC.EXE
Additional command line options : -6 -V -T "ARTIST=%a" -T "TITLE=%t" -T "ALBUM=%g" -T "DATE=%y" -T "TRACKNUMBER=%n" -T "GENRE=%m" -T "COMMENT=%e" %j–picture="%i"%j %s -o %d


TOC of the extracted CD

Track | Start | Length | Start sector | End sector
––––––––––––––––––––––––––––-
1 | 0:00.32 | 3:10.53 | 32 | 14334
2 | 3:11.10 | 2:40.65 | 14335 | 26399
3 | 5:52.00 | 2:28.40 | 26400 | 37539
4 | 8:20.40 | 2:18.25 | 37540 | 47914
5 | 10:38.65 | 2:28.02 | 47915 | 59016
6 | 13:06.67 | 2:24.63 | 59017 | 69879
7 | 15:31.55 | 2:59.30 | 69880 | 83334
8 | 18:31.10 | 2:49.72 | 83335 | 96081
9 | 21:21.07 | 2:11.05 | 96082 | 105911
10 | 23:32.12 | 3:03.18 | 105912 | 119654
11 | 26:35.30 | 2:29.10 | 119655 | 130839
12 | 29:04.40 | 2:23.27 | 130840 | 141591
13 | 31:27.67 | 2:23.00 | 141592 | 152316
14 | 33:50.67 | 2:50.13 | 152317 | 165079
15 | 36:41.05 | 3:01.27 | 165080 | 178681
16 | 39:42.32 | 2:19.10 | 178682 | 189116
17 | 42:01.42 | 2:13.58 | 189117 | 199149
18 | 44:15.25 | 3:18.25 | 199150 | 214024
19 | 47:33.50 | 2:39.57 | 214025 | 226006


Track 1

Filename A:\music\Antoine - Antoine Rencontre Les Problèmes (1966) (Plus Bonus) - Antoine Rencontre Les Problèmes\01 - Je Dis Ce Que Je Pense (Antoine).wav

Pre-gap length 0:00:02.32

Peak level 99.3 %
Extraction speed 1.0 X
Track quality 100.0 %
Test CRC 2C5A3B58
Copy CRC 2C5A3B58
Track not present in AccurateRip database
Copy OK

Track 2

Filename A:\music\Antoine - Antoine Rencontre Les Problèmes (1966) (Plus Bonus) - Antoine Rencontre Les Problèmes\02 - Contre-Élucubrations Problématiques (Antoine).wav

Pre-gap length 0:00:02.15

Peak level 95.6 %
Extraction speed 1.0 X
Track quality 100.0 %
Test CRC F1D9F284
Copy CRC F1D9F284
Track not present in AccurateRip database
Copy OK

Track 3

Filename A:\music\Antoine - Antoine Rencontre Les Problèmes (1966) (Plus Bonus) - Antoine Rencontre Les Problèmes\03 - Des Lendemains (Filipelli-Rinaldi).wav

Pre-gap length 0:00:02.10

Peak level 96.3 %
Extraction speed 1.1 X
Track quality 100.0 %
Test CRC 0BD0D6E1
Copy CRC 0BD0D6E1
Track not present in AccurateRip database
Copy OK

Track 4

Filename A:\music\Antoine - Antoine Rencontre Les Problèmes (1966) (Plus Bonus) - Antoine Rencontre Les Problèmes\04 - Pop Jerk (Sarrus-Rinaldi).wav

Pre-gap length 0:00:01.60

Peak level 99.3 %
Extraction speed 1.1 X
Track quality 100.0 %
Test CRC 55BE2BDB
Copy CRC 55BE2BDB
Track not present in AccurateRip database
Copy OK

Track 5

Filename A:\music\Antoine - Antoine Rencontre Les Problèmes (1966) (Plus Bonus) - Antoine Rencontre Les Problèmes\05 - Ce Monde Existe (Filipelli-Rinaldi).wav

Pre-gap length 0:00:02.40

Peak level 99.4 %
Extraction speed 1.1 X
Track quality 100.0 %
Test CRC 4AFF1D27
Copy CRC 4AFF1D27
Track not present in AccurateRip database
Copy OK

Track 6

Filename A:\music\Antoine - Antoine Rencontre Les Problèmes (1966) (Plus Bonus) - Antoine Rencontre Les Problèmes\06 - Dodecaphonie (Sarrusi-Rinaldi).wav

Pre-gap length 0:00:02.12

Peak level 90.2 %
Extraction speed 1.2 X
Track quality 100.0 %
Test CRC 5C96D31C
Copy CRC 5C96D31C
Track not present in AccurateRip database
Copy OK

Track 7

Filename A:\music\Antoine - Antoine Rencontre Les Problèmes (1966) (Plus Bonus) - Antoine Rencontre Les Problèmes\07 - Je Ne Vois Rien (Rego-Rinaldi).wav

Pre-gap length 0:00:01.30

Peak level 99.4 %
Extraction speed 1.4 X
Track quality 100.0 %
Test CRC CC9BBF95
Copy CRC CC9BBF95
Track not present in AccurateRip database
Copy OK

Track 8

Filename A:\music\Antoine - Antoine Rencontre Les Problèmes (1966) (Plus Bonus) - Antoine Rencontre Les Problèmes\08 - Ballade À Luis Rego, Prisonnier Politique (Filipelli-Rinaldi).wav

Pre-gap length 0:00:01.35

Peak level 88.4 %
Extraction speed 1.4 X
Track quality 100.0 %
Test CRC 8F4A93AD
Copy CRC 8F4A93AD
Track not present in AccurateRip database
Copy OK

Track 9

Filename A:\music\Antoine - Antoine Rencontre Les Problèmes (1966) (Plus Bonus) - Antoine Rencontre Les Problèmes\09 - On S'en Fout (Filipelli-Rinaldi).wav

Pre-gap length 0:00:01.67

Peak level 99.4 %
Extraction speed 1.3 X
Track quality 100.0 %
Test CRC 35D719E4
Copy CRC 35D719E4
Track not present in AccurateRip database
Copy OK

Track 10

Filename A:\music\Antoine - Antoine Rencontre Les Problèmes (1966) (Plus Bonus) - Antoine Rencontre Les Problèmes\10 - Pas Adieu (Rego-Rinaldi).wav

Pre-gap length 0:00:02.17

Peak level 95.8 %
Extraction speed 1.5 X
Track quality 100.0 %
Test CRC 767DEACD
Copy CRC 767DEACD
Track not present in AccurateRip database
Copy OK

Track 11

Filename A:\music\Antoine - Antoine Rencontre Les Problèmes (1966) (Plus Bonus) - Antoine Rencontre Les Problèmes\11 - S'il Boude (Rego-Rinaldi).wav

Pre-gap length 0:00:02.55

Peak level 82.4 %
Extraction speed 1.5 X
Track quality 100.0 %
Test CRC 4938AC2D
Copy CRC 4938AC2D
Track not present in AccurateRip database
Copy OK

Track 12

Filename A:\music\Antoine - Antoine Rencontre Les Problèmes (1966) (Plus Bonus) - Antoine Rencontre Les Problèmes\12 - Si C'est La Nuit (Sarrus-Rinaldi).wav

Pre-gap length 0:00:01.25

Peak level 99.4 %
Extraction speed 1.5 X
Track quality 100.0 %
Test CRC 0BB66770
Copy CRC 0BB66770
Track not present in AccurateRip database
Copy OK

Track 13

Filename A:\music\Antoine - Antoine Rencontre Les Problèmes (1966) (Plus Bonus) - Antoine Rencontre Les Problèmes\13 - Il Suffirait D'un Rien (Fechner-Schnare).wav

Pre-gap length 0:00:02.30

Peak level 99.4 %
Extraction speed 1.5 X
Track quality 100.0 %
Test CRC 4AF9BC05
Copy CRC 4AF9BC05
Track not present in AccurateRip database
Copy OK

Track 14

Filename A:\music\Antoine - Antoine Rencontre Les Problèmes (1966) (Plus Bonus) - Antoine Rencontre Les Problèmes\14 - Passe Ton Chemin (Tenas).wav

Pre-gap length 0:00:01.45

Peak level 99.4 %
Extraction speed 1.7 X
Track quality 100.0 %
Test CRC 33BE7513
Copy CRC 33BE7513
Track not present in AccurateRip database
Copy OK

Track 15

Filename A:\music\Antoine - Antoine Rencontre Les Problèmes (1966) (Plus Bonus) - Antoine Rencontre Les Problèmes\15 - Je Dis N'importe Quoi, Je Fais Tout Ce Qu'on Me Dit (Antoine-Rinaldi).wav

Pre-gap length 0:00:02.35

Peak level 89.5 %
Extraction speed 1.8 X
Track quality 100.0 %
Test CRC 39AE5A23
Copy CRC 39AE5A23
Track not present in AccurateRip database
Copy OK

Track 16

Filename A:\music\Antoine - Antoine Rencontre Les Problèmes (1966) (Plus Bonus) - Antoine Rencontre Les Problèmes\16 - Quand Je Pense À Toi (Rakotonerina-Harvel).wav

Pre-gap length 0:00:02.70

Peak level 85.7 %
Extraction speed 1.4 X
Track quality 99.9 %
Test CRC 24CF577E
Copy CRC 24CF577E
Track not present in AccurateRip database
Copy OK

Track 17

Filename A:\music\Antoine - Antoine Rencontre Les Problèmes (1966) (Plus Bonus) - Antoine Rencontre Les Problèmes\17 - Psychose (Toujours) (Fechner).wav

Pre-gap length 0:00:02.10

Peak level 99.4 %
Extraction speed 1.7 X
Track quality 100.0 %
Test CRC F01ADC40
Copy CRC F01ADC40
Track not present in AccurateRip database
Copy OK

Track 18

Filename A:\music\Antoine - Antoine Rencontre Les Problèmes (1966) (Plus Bonus) - Antoine Rencontre Les Problèmes\18 - Pas De Problèmes (Mouly).wav

Pre-gap length 0:00:02.25

Peak level 99.4 %
Extraction speed 1.9 X
Track quality 100.0 %
Test CRC F19FB314
Copy CRC F19FB314
Track not present in AccurateRip database
Copy OK

Track 19

Filename A:\music\Antoine - Antoine Rencontre Les Problèmes (1966) (Plus Bonus) - Antoine Rencontre Les Problèmes\19 - (bonus track) Hey Max (Hey Joe) (Roberts-Rinaldi) (1967).wav

Pre-gap length 0:00:02.20

Peak level 89.0 %
Extraction speed 1.6 X
Track quality 99.9 %
Test CRC B457677D
Copy CRC B457677D
Track not present in AccurateRip database
Copy OK


None of the tracks are present in the AccurateRip database

No errors occurred

End of status report



Filesonic links
Artwork&Support
FS1
FS2
FS3
FS4
Password: MrMushroom


No mirrors according to the rules