Subcategories

Antonio Cobo - Arena caliente (1998)

Posted By: Speedyclick
Antonio Cobo - Arena caliente (1998)

Antonio Cobo - Arena caliente (1998)
EAC Rip | FLAC (image & cue & log) & mp3 @ 320 kbps | tracks: 10 | Cover | 47:06 | ~ 329 Mb & 112 Mb
Label: Alcione | 5% recovery record | Instrumental, new flamenco, fusion

"Arena caliente" is the first and most known album of Antonio Cobo. Released in 1998 it became a best seller, placing the colombian composer and guitar virtuoso, among the greats of the popular nouveau flamenco style. Quick and happy rhythms, multi-instrument arrangements and a jazzy flavor, will satisfy the fans of the genre. The album was re-released in 2005 under the title "Flamenco soul". Enjoy some delightful music.

TRACKLIST
01. Rodando
02. Love Dreaming
03. South Beach Live
04. Pasion Andina
05. Iberian Nights
06. Moonlight
07. Arena Caliente
08. Earth Cry
09. Arabian Romance
10. Fiesta

Exact Audio Copy V0.99 prebeta 3 from 28. July 2007

Отчёт EAC об извлечении, выполненном 24. октября 2008, 0:17

Antonio Cobo / Arena Caliente

Дисковод: PIONEER DVD-RW DVR-111D Adapter: 1 ID: 0

Режим чтения : Достоверность
Использование точного потока : Да
Отключение кэша аудио : Да
Использование указателей C2 : Нет

Коррекция смещения при чтении : 48
Способность читать области Lead-in и Lead-out : Нет
Заполнение пропущенных сэмплов тишиной : Да
Удаление блоков с тишиной в начале и конце : Нет
При вычислениях CRC использовались нулевые сэмплы : Нет
Интерфейс : Установленный внешний ASPI-интерфейс

Выходной формат : Пользовательский кодировщик
Выбранный битрейт : 1024 kBit/s
Качество : Высокий
Добавление ID3-тэга : Нет
Утилита сжатия : C:\Program Files\Exact Audio Copy\Flac\flac.exe
Дополнительные параметры : –best -V -T "date=%y" -T "genre=%m" %s


TOC извлечённого CD

Трек | Старт | Длительность | Начальный сектор | Конечный сектор
––––––––––––––––––––––––––––––––––-
1 | 0:00.00 | 5:00.65 | 0 | 22564
2 | 5:00.65 | 4:38.42 | 22565 | 43456
3 | 9:39.32 | 4:16.65 | 43457 | 62721
4 | 13:56.22 | 4:18.18 | 62722 | 82089
5 | 18:14.40 | 4:49.70 | 82090 | 103834
6 | 23:04.35 | 4:59.02 | 103835 | 126261
7 | 28:03.37 | 4:51.68 | 126262 | 148154
8 | 32:55.30 | 4:50.70 | 148155 | 169974
9 | 37:46.25 | 5:07.72 | 169975 | 193071
10 | 42:54.22 | 4:05.38 | 193072 | 211484


Характеристики диапазона извлечения и сообщения об ошибках

Выбранный диапазон

Имя файла I:\multimedia\Music\CD-RIP\Antonio Cobo\Antonio Cobo - Arena Caliente\Antonio Cobo - Arena Caliente.wav

Пиковый уровень 98.5 %
Качество диапазона 100.0 %
CRC копии C5672B47
Копирование… OK

Ошибок не произошло

Конец отчёта

Credits to the initial ripper / uploader of this album