Subcategories

Antonio Cobo - Seduction (1999)

Posted By: Speedyclick
Antonio Cobo - Seduction (1999)

Antonio Cobo - Seduction (1999)
EAC Rip | FLAC (tracks & cue & log) & mp3 @ 320 kbps | tracks: 8 | Scans | 46:25 | ~ 330 Mb & 115 Mb
Label: Alcione | 5% recovery record | New age, flamenco, fusion

In this seductive album, the Colombian composer and guitar virtuoso Antonio Cobo, brings a new istrumental fusion of jazz and nouveau flamenco. Refreshing and relaxing music, interpreted with guitar, sax, bongos, congas and caja ballenata, ideal for romantic summer nights. Enjoy.

Born in Cali, Colombia, Antonio Cobo began taking guitar lessons at age six on an instrument given to him by his grandfather; it would become his companion while traveling throughout South America and while living for three years in Spain, Italy and France. Demonstrating the abilities of a natural prodigy, Cobo was sent to the Settlement Musical School at Temple University, Philadelphia; by the age of 16, he was already a music professor for classical guitar at the Music Conservatory, a position he held for five years.

Subsequently relocating to Europe, he studied with Andres Segovia and Alirio Diaz. Expanding his repertoire, Cobo is now proficient on harp, tipple, quattro, charango, bouzouki, keyboards and Latin percussion. ” The first song I remember hearing was ” Esperanza ( Hope by Luis Morale) “, Cobo remembers. ” And the first record I purchased was ” The Accent is in the Rhythm” by Los Indios Tabajara. What impressed me about this guitar duo was their precision, technique, and speed. Now, I’m influenced by Sabica, the king of flamenco, for his agility and digitization, as well as solist Alfredo Gil of Los Panchos for his technique and style. I’d love to play with Paco de Lucia because I would be able to learn so much from him, but I’d also like to accompany Julio Iglesias.”
TRACKLIST
01. Full Moon
02. Gitano
03. Luz y Sombra
04. Ecos de Amor
05. Sweet Summer
06. Love Dreaming
07. African Memories
08. Earth Cry

EAC extraction logfile from 28. September 2011, 15:21 for CD
Antonio Cobo / Seduction

Used drive : TSSTcorpCDDVDW SH-222AB Adapter: 2 ID: 0
Read mode : Secure with NO C2, accurate stream, disable cache
Read offset correction : 6
Overread into Lead-In and Lead-Out : No

Used output format : C:\Program Files\FLAC\flac.exe (User Defined Encoder)
320 kBit/s
Additional command line options : -8 -V -T "ARTIST=%a" -T "TITLE=%t" -T "ALBUM=%g" -T "DATE=%y" -T "TRACKNUMBER=%n" -T "GENRE=%m" -T "COMMENT=EAC FLAC -8" %s

Other options :
Fill up missing offset samples with silence : Yes
Delete leading and trailing silent blocks : No
Native Win32 interface for Win NT & 2000


Track 1
Filename C:\AUDIO RIP\1999 - Antonio Cobo - Seduction\01. Antonio Cobo - Full Moon.wav

Pre-gap length 0:00:02.00

Peak level 100.0 %
Track quality 100.0 %
Test CRC 6D302BF3
Copy CRC 6D302BF3
Copy OK

Track 2
Filename C:\AUDIO RIP\1999 - Antonio Cobo - Seduction\02. Antonio Cobo - Gitano.wav

Pre-gap length 0:00:02.00

Peak level 100.0 %
Track quality 100.0 %
Test CRC 0BE76515
Copy CRC 0BE76515
Copy OK

Track 3
Filename C:\AUDIO RIP\1999 - Antonio Cobo - Seduction\03. Antonio Cobo - Luz y Sombra.wav

Pre-gap length 0:00:02.00

Peak level 99.9 %
Track quality 100.0 %
Test CRC B3262656
Copy CRC B3262656
Copy OK

Track 4
Filename C:\AUDIO RIP\1999 - Antonio Cobo - Seduction\04. Antonio Cobo - Ecos de Amor.wav

Pre-gap length 0:00:02.00

Peak level 100.0 %
Track quality 100.0 %
Test CRC 97051585
Copy CRC 97051585
Copy OK

Track 5
Filename C:\AUDIO RIP\1999 - Antonio Cobo - Seduction\05. Antonio Cobo - Sweet Summer.wav

Pre-gap length 0:00:02.00

Peak level 99.9 %
Track quality 99.9 %
Test CRC E2774E27
Copy CRC E2774E27
Copy OK

Track 6
Filename C:\AUDIO RIP\1999 - Antonio Cobo - Seduction\06. Antonio Cobo - Love Dreaming.wav

Pre-gap length 0:00:02.00

Peak level 98.5 %
Track quality 100.0 %
Test CRC AA1C6408
Copy CRC AA1C6408
Copy OK

Track 7
Filename C:\AUDIO RIP\1999 - Antonio Cobo - Seduction\07. Antonio Cobo - African Memories.wav

Pre-gap length 0:00:02.00

Peak level 100.0 %
Track quality 100.0 %
Test CRC 8FD71A51
Copy CRC 8FD71A51
Copy OK

Track 8
Filename C:\AUDIO RIP\1999 - Antonio Cobo - Seduction\08. Antonio Cobo - Earth Cry.wav

Pre-gap length 0:00:02.00

Peak level 98.5 %
Track quality 100.0 %
Test CRC F87741A7
Copy CRC F87741A7
Copy OK

No errors occured


End of status report

––––––––––––––––––––––––––––––

EAC extraction logfile from 28. September 2011, 15:24 for CD
Antonio Cobo / Seduction

Used drive : TSSTcorpCDDVDW SH-222AB Adapter: 2 ID: 0
Read mode : Secure with NO C2, accurate stream, disable cache
Read offset correction : 6
Overread into Lead-In and Lead-Out : No

Used output format : C:\Program Files\FLAC\flac.exe (User Defined Encoder)
320 kBit/s
Additional command line options : -8 -V -T "ARTIST=%a" -T "TITLE=%t" -T "ALBUM=%g" -T "DATE=%y" -T "TRACKNUMBER=%n" -T "GENRE=%m" -T "COMMENT=EAC FLAC -8" %s

Other options :
Fill up missing offset samples with silence : Yes
Delete leading and trailing silent blocks : No
Native Win32 interface for Win NT & 2000


Track 1
Filename C:\AUDIO RIP\1999 - Antonio Cobo - Seduction\01. Antonio Cobo - Full Moon.wav

Pre-gap length 0:00:02.00

Peak level 100.0 %
Track quality 100.0 %
Test CRC 6D302BF3
Copy CRC 6D302BF3
Copy OK

Track 2
Filename C:\AUDIO RIP\1999 - Antonio Cobo - Seduction\02. Antonio Cobo - Gitano.wav

Pre-gap length 0:00:02.00

Peak level 100.0 %
Track quality 100.0 %
Test CRC 0BE76515
Copy CRC 0BE76515
Copy OK

Track 3
Filename C:\AUDIO RIP\1999 - Antonio Cobo - Seduction\03. Antonio Cobo - Luz y Sombra.wav

Pre-gap length 0:00:02.00

Peak level 99.9 %
Track quality 100.0 %
Test CRC B3262656
Copy CRC B3262656
Copy OK

Track 4
Filename C:\AUDIO RIP\1999 - Antonio Cobo - Seduction\04. Antonio Cobo - Ecos de Amor.wav

Pre-gap length 0:00:02.00

Peak level 100.0 %
Track quality 100.0 %
Test CRC 97051585
Copy CRC 97051585
Copy OK

Track 5
Filename C:\AUDIO RIP\1999 - Antonio Cobo - Seduction\05. Antonio Cobo - Sweet Summer.wav

Pre-gap length 0:00:02.00

Peak level 99.9 %
Track quality 99.9 %
Test CRC E2774E27
Copy CRC E2774E27
Copy OK

Track 6
Filename C:\AUDIO RIP\1999 - Antonio Cobo - Seduction\06. Antonio Cobo - Love Dreaming.wav

Pre-gap length 0:00:02.00

Peak level 98.5 %
Track quality 100.0 %
Test CRC AA1C6408
Copy CRC AA1C6408
Copy OK

Track 7
Filename C:\AUDIO RIP\1999 - Antonio Cobo - Seduction\07. Antonio Cobo - African Memories.wav

Pre-gap length 0:00:02.00

Peak level 100.0 %
Track quality 100.0 %
Test CRC 8FD71A51
Copy CRC 8FD71A51
Copy OK

Track 8
Filename C:\AUDIO RIP\1999 - Antonio Cobo - Seduction\08. Antonio Cobo - Earth Cry.wav

Pre-gap length 0:00:02.00

Peak level 98.5 %
Track quality 100.0 %
Test CRC F87741A7
Copy CRC F87741A7
Copy OK

No errors occured


End of status report

Credits and thanks to the initial ripper / uploader of this beautiful guitar album