Subcategories

Antonis Kaloyiannis - Sings Moustaki (2007)

Posted By: Speedyclick
Antonis Kaloyiannis - Sings Moustaki (2007)

Antonis Kaloyiannis - Sings Moustaki (2007)
EAC Rip | FLAC (image & cue & log) & mp3 @ 320 kbps | tracks: 12 | Scans | 36:02 | ~ 248 Mb & 114 Mb
Label: Universal | 5% recovery record | First release: 1979 | Folk, ballads

Antonis Kaloyiannis' brilliant career started in 1966 when Mikis Theodorakis heard him singing in the shoemaker's shop where he worked. He has a rich, warm and very expressive voice, "a whole orchestra" as Mikis used to say. This is a really wonderful album, where Kaloyiannis sings well known ballads of the French-Greek famous songwriter and singer Georges Moustaki. Enjoy.

TRACKLIST
01. Stin Kardia se zito (Grandpere)
02. Monaxia (Ma Solitude)
03. Choros (Dance)
04. I Agapes pernoun (Les Amours finissent)
05. To Taxidi (Le Voyage)
06. O Metikos (Le Meteque)
07. Mesogios (En Mediterannee)
08. Gi'aftous pou sisan Moni (Portugal)
09. Ine Arga (Il est trop tard)
10. I Lefteria mou (Ma Libertee)
11. Pou travoun i Dromi (Ou menent ces Routes devant moi)
12. I Thalassa mou 'pe (La Mer m'a donne)

Exact Audio Copy V1.0 beta 3 from 29. August 2011

EAC extraction logfile from 4. February 2013, 22:06

Antonis Kalogiannis / Lieder von Moustakis

Used drive : HL-DT-STDVDRAM GH10N Adapter: 1 ID: 1

Read mode : Secure
Utilize accurate stream : Yes
Defeat audio cache : Yes
Make use of C2 pointers : No

Read offset correction : 667
Overread into Lead-In and Lead-Out : No
Fill up missing offset samples with silence : Yes
Delete leading and trailing silent blocks : No
Null samples used in CRC calculations : Yes
Used interface : Native Win32 interface for Win NT & 2000

Used output format : User Defined Encoder
Selected bitrate : 1024 kBit/s
Quality : High
Add ID3 tag : Yes
Command line compressor : C:\Program Files\Exact Audio Copy New\Flac\flac.exe
Additional command line options : -V -5 -T "artist=%artist%" -T "title=%title%" -T "album=%albumtitle%" -T "tracknumber=%tracknr2%" -T "genre=%genre%" -5 %source%


TOC of the extracted CD

Track | Start | Length | Start sector | End sector
––––––––––––––––––––––––––––-
1 | 0:00.00 | 2:51.17 | 0 | 12841
2 | 2:51.17 | 3:27.30 | 12842 | 28396
3 | 6:18.47 | 2:46.40 | 28397 | 40886
4 | 9:05.12 | 3:18.00 | 40887 | 55736
5 | 12:23.12 | 2:49.53 | 55737 | 68464
6 | 15:12.65 | 2:32.12 | 68465 | 79876
7 | 17:45.02 | 3:55.45 | 79877 | 97546
8 | 21:40.47 | 3:35.38 | 97547 | 113709
9 | 25:16.10 | 3:04.02 | 113710 | 127511
10 | 28:20.12 | 2:34.48 | 127512 | 139109
11 | 30:54.60 | 2:38.62 | 139110 | 151021
12 | 33:33.47 | 2:29.10 | 151022 | 162206


Range status and errors

Selected range

Filename S:\MUSIC\Uploaded\GREEK\Antonis Kaloyiannis - Tragouda Moustaki\Antonis Kaloyiannis - Tragouda Moustaki.wav

Peak level 99.2 %
Extraction speed 5.2 X
Range quality 99.9 %
Test CRC 440199E7
Copy CRC 440199E7
Copy OK

No errors occurred


AccurateRip summary

Track 1 not present in database
Track 2 not present in database
Track 3 not present in database
Track 4 not present in database
Track 5 not present in database
Track 6 not present in database
Track 7 not present in database
Track 8 not present in database
Track 9 not present in database
Track 10 not present in database
Track 11 not present in database
Track 12 not present in database

None of the tracks are present in the AccurateRip database

End of status report

–– CUETools DB Plugin V2.1.3

[CTDB TOCID: fPFgX1KhWfrgqUI8jxMvkjIqnvQ-] disk not present in database, Submit result: fPFgX1KhWfrgqUI8jxMvkjIqnvQ- has been uploaded


==== Log checksum 38C3CF18DBE8BA840340978CDFCF9683AC4BD44821DE88A5C7C75D595D03EC47 ====