Subcategories

Arcade Fire - Neon Bible [Merge Records MRG285] (2007)

Posted By: luckburz
Arcade Fire - Neon Bible [Merge Records MRG285] (2007)

Arcade Fire - Neon Bible
EAC+LOG+CUE | WV: 457 MB | Full Artwork | 5% Recovery Info
Label/Cat#: Merge Records # MRG285 | Country/Year: UK 2007
Genre: Rock, Folk | Style: Folk Rock, Indie Rock

MD5 [X] CUE [X] LOG [X] INFO TEXT [X] ARTWORK [X]

selfrip [] not my rip [X]


Exact Audio Copy V1.0 beta 1 from 15. November 2010

EAC extraction logfile from 16. May 2011, 23:13

Arcade Fire / Neon Bible

Used drive : HL-DT-STDVDRAM GH22NS40 Adapter: 2 ID: 1

Read mode : Secure
Utilize accurate stream : Yes
Defeat audio cache : Yes
Make use of C2 pointers : No

Read offset correction : 667
Overread into Lead-In and Lead-Out : No
Fill up missing offset samples with silence : Yes
Delete leading and trailing silent blocks : No
Null samples used in CRC calculations : Yes
Used interface : Installed external ASPI interface

Used output format : User Defined Encoder
Selected bitrate : 1024 kBit/s
Quality : High
Add ID3 tag : No
Command line compressor : C:\Program Files\Exact Audio Copy\wavpack.exe
Additional command line options : -hlmx2 %s


TOC of the extracted CD

Track | Start | Length | Start sector | End sector
––––––––––––––––––––––––––––-
1 | 0:00.00 | 4:13.28 | 0 | 19002
2 | 4:13.28 | 3:29.07 | 19003 | 34684
3 | 7:42.35 | 2:16.48 | 34685 | 44932
4 | 9:59.08 | 4:19.00 | 44933 | 64357
5 | 14:18.08 | 3:57.38 | 64358 | 82170
6 | 18:15.46 | 4:53.39 | 82171 | 104184
7 | 23:09.10 | 3:56.53 | 104185 | 121937
8 | 27:05.63 | 5:10.21 | 121938 | 145208
9 | 32:16.09 | 4:16.30 | 145209 | 164438
10 | 36:32.39 | 5:43.47 | 164439 | 190210
11 | 42:16.11 | 4:47.18 | 190211 | 211753


Range status and errors

Selected range

Filename C:\lossless\Arcade Fire\Arcade Fire - Neon Bible.wav

Peak level 100.0 %
Extraction speed 0.1 X
Range quality 100.0 %
Test CRC 10E2BFF9
Copy CRC 10E2BFF9
Copy OK

No errors occurred


AccurateRip summary

Track 1 accurately ripped (confidence 16) [CA2B901B]
Track 2 accurately ripped (confidence 16) [BC37CAA8]
Track 3 accurately ripped (confidence 16) [9DEA6266]
Track 4 accurately ripped (confidence 16) [69BBC94A]
Track 5 accurately ripped (confidence 16) [F286BC26]
Track 6 accurately ripped (confidence 16) [64D0BEE4]
Track 7 accurately ripped (confidence 16) [9FCCFB7B]
Track 8 accurately ripped (confidence 16) [42BD925F]
Track 9 accurately ripped (confidence 16) [A0313555]
Track 10 accurately ripped (confidence 16) [7D592D3C]
Track 11 accurately ripped (confidence 16) [E5CF6417]

All tracks accurately ripped

End of status report

==== Log checksum D909BB198C0D79AF39477756B68069960210D61A66AA29074FEAF0D657740C28 ====

–––––––––––-

DON'T MODIFY THIS FILE

–––––––––––-

PERFORMER: auCDtect Task Manager, ver. 1.5.1RC3 build 1.5.1.4
Copyright © 2008-2010 y-soft. All rights reserved
http://y-soft.org

ANALYZER: auCDtect: CD records authenticity detector, version 0.8.2
Copyright © 2004 Oleg Berngardt. All rights reserved.
Copyright © 2004 Alexander Djourik. All rights reserved.


FILE: Arcade Fire - Neon Bible.wav
Size: 498045452 Hash: 652524382B2E7E9560E77A59C4562B8D Accuracy: -m0
Conclusion: CDDA 99%
Signature: C95DEBAF08B15BC080DC6EA50896C6F834914738


foobar2000 1.1.14a / Dynamic Range Meter 1.1.1
log date: 2012-10-17 16:07:26

––––––––––––––––––––––––––––––––––––––––
Analyzed: Arcade Fire / Neon Bible
––––––––––––––––––––––––––––––––––––––––

DR Peak RMS Duration Track
––––––––––––––––––––––––––––––––––––––––
DR7 0.00 dB -8.68 dB 4:13 01-Black Mirror
DR6 -0.08 dB -7.86 dB 3:29 02-Keep The Car Running
DR11 -0.49 dB -15.01 dB 2:17 03-Neon Bible
DR7 -0.09 dB -9.27 dB 4:19 04-Intervention
DR5 -0.09 dB -7.28 dB 3:58 05-Black Wave / Bad Vibrations
DR6 -0.86 dB -11.29 dB 4:54 06-Ocean Of Noise
DR6 -0.49 dB -8.10 dB 3:57 07-The Well And The Lighthouse
DR8 -0.09 dB -9.58 dB 5:10 08-(Antichrist Television Blues)
DR6 -0.06 dB -9.95 dB 4:16 09-Windowsill
DR7 -0.04 dB -9.54 dB 5:44 10-No Cars Go
DR6 -0.23 dB -9.97 dB 4:47 11-My Body Is A Cage
––––––––––––––––––––––––––––––––––––––––

Number of tracks: 11
Official DR value: DR7

Samplerate: 44100 Hz
Channels: 2
Bits per sample: 16
Bitrate: 894 kbps
Codec: WavPack
================================================================================



CD Info:

Arcade Fire - Neon Bible

Label: Merge Records
Catalog#: MRG285
Format: CD, Album
Country: UK
Released: 2007
Genre: Rock, Folk

Tracklist:

1 - Black Mirror 4:13
2 - Keep The Car Running 3:29
3 - Neon Bible 2:17
4 - Intervention 4:19
5 - Black Wave / Bad Vibrations 3:58
6 - Ocean Of Noise 4:54
7 - The Well And The Lighthouse 3:57
8 - (Antichrist Television Blues) 5:10
9 - Windowsill 4:16
10 - No Cars Go 5:44
11 - My Body Is A Cage 4:47

Arcade Fire - Neon Bible [Merge Records MRG285] (2007)


review by James Christopher Monger

When Montreal's Arcade Fire released Funeral in 2004, it received the kind of critical and commercial acclaim that most bands spend their entire careers trying to attain. Within a year the group was headlining major festivals and sharing the stage with U2 and New York City's "two Davids" (Bowie and Byrne), all the while amassing a devoted following that descended upon shows like sinners at a tent revival, engaging in the kind of artist appreciation that can easily turn to a false sense of ownership. On their alternately wrecked and defiant follow-up, Neon Bible, one can sense a bit of a Wall being erected (Win Butler's Roger Waters/Bruce Springsteen/Garrison Keillor-style vocal delivery notwithstanding) around the group. If Funeral was the goodbye kiss on the coffin of youth, then Bible is the bitter pint (or pints) after a long day's work. The brooding opener, "Black Mirror," with its sinister "Suffragette City"-inspired groove and murky refrain of "Mirror, Mirror on the wall/Show me where them bombs will fall," sets an immediate world-weary tone that permeates that majority of Neon Bible's Technicolor pages. As expected, those sentiments are amplified with all of the majestic and overwrought power that has divided listeners since the group's ascension to indie rock royalty, but despite a tendency toward midtempo balladry and post-fame cynicism, they're anything but dull. It's the triumphant orchestral remake of live staple "No Cars Go" and the infectious "Keep the Car Running" – the latter sounds like a 21st century update of John Cafferty & the Beaver Brown Band's "On the Dark Side" – that will most appeal to Funeral fans, and when the bottom drops out a minute and a half into the pipe organ-led "Intervention" and Butler wails "Who's gonna reset the bone," it's hard not get caught up in all of the dystopian fervor. "Black Wave/Bad Vibrations" and "The Well and the Lighthouse" continue the band's explorations into progressive song structures and lush mini-suites, the thunder-filled "Ocean of Noise" is reminiscent of Bossanova-era Pixies, and the stark (at first) closer "My Body Is a Cage" straddles the sawhorse of earnest desperation and classic rock & roll self-absorption so effortlessly that it demands to be either turned off or all the way up. Neon Bible takes a few spins to digest properly, and like all rich foods (orchestra, harps, and gospel choirs abound), it's as decadent as it is tasty – theatricality has never been a practice that the collective has shied away from – but there's no denying the Arcade Fire's singular vision, even when it blurs a little.
Arcade Fire - Neon Bible [Merge Records MRG285] (2007)
allmusicguide

Thanks to triGada!
Arcade Fire - Neon Bible [Merge Records MRG285] (2007)

// classical music \\
// all of my uploads \\
________________

Download:

Music
Artwork
________________