Subcategories

The Art Farmer Quartet featuring Jim Hall - Interaction (1963) {Atlantic Warner Japan 30XD-1039 rel 1988}

Posted By: ruskaval
The Art Farmer Quartet featuring Jim Hall - Interaction (1963) {Atlantic Warner Japan 30XD-1039 rel 1988}

The Art Farmer Quartet featuring Jim Hall - Interaction (1963) {Atlantic Warner Japan 30XD-1039 rel 1988}
EAC rip (secure mode) | FLAC (tracks)+CUE+LOG -> 231 Mb | MP3 @320 -> 104 Mb
Full Artwork @ 600 dpi (jpg) -> 87 Mb | 5% repair rar
© 1963, 1988 Atlantic / Warner Japan | 30XD-1039
Jazz / Bop / Cool / Flugelhorn / Guitar

This [reissue] restores to circulation a strong Atlantic date from Art Farmer's immediate post-Jazztet period and features Farmer's quartet playing standards with swinging subtlety. Interaction, from 1963, is a vehicle for the intertwining improvisations of guitarist Jim Hall and Farmer, on flügelhorn, who weaves through and around Hall's sublimely understated lines with disarming ease, elegance, and sensitivity.
The Art Farmer Quartet featuring Jim Hall - Interaction (1963) {Atlantic Warner Japan 30XD-1039 rel 1988}

Their approach draws to mind the great duet outings Hall made with pianist Bill Evans (Undercurrent & Intermodulation). Bassist Steve Swallow, at this time still strictly an acoustic player, and drummer Walter Perkins are also given lots of the spotlight in a intimate mix that highlights the quartet's telepathic interplay. The only misgiving is some occasional distortion in Hall's and Swallow's parts. […] This cd can be readily recommended to Farmer's fans and to listeners with an interest in any of the players involved
The Art Farmer Quartet featuring Jim Hall - Interaction (1963) {Atlantic Warner Japan 30XD-1039 rel 1988}


Personnel:
Art Farmer - flugelhorn
Jim Hall - guitar
Steve Swallow - bass
Walter Perkins - drums

tracklist:
01 - Days Of Wine And Roses
02 - By Myself
03 - My Little Suede Shoes
04 - Embraceable You
05 - My Kinda Love
06 - Sometime Ago
07 - Loads Of Love (bonus track)

Exact Audio Copy V1.1 from 23. June 2015

EAC extraction logfile from 3. December 2016, 1:03

The Art Farmer Quartet featuring Jim Hall / Interaction

Used drive : TSSTcorpCDDVDW SE-208DB Adapter: 1 ID: 2

Read mode : Secure
Utilize accurate stream : Yes
Defeat audio cache : Yes
Make use of C2 pointers : No

Read offset correction : 6
Overread into Lead-In and Lead-Out : No
Fill up missing offset samples with silence : Yes
Delete leading and trailing silent blocks : No
Null samples used in CRC calculations : Yes
Used interface : Native Win32 interface for Win NT & 2000
Gap handling : Appended to previous track

Used output format : User Defined Encoder
Selected bitrate : 1024 kBit/s
Quality : High
Add ID3 tag : No
Command line compressor : C:\Program Files (x86)\FLAC Frontend\tools\flac.exe
Additional command line options : -8 -V -T "ARTIST=%artist%" -T "TITLE=%title%" -T "ALBUM=%albumtitle%" -T "DATE=%year%" -T "TRACKNUMBER=%tracknr%" -T "TOTALTRACKS=%numtracks%" -T "GENRE=%genre%" -T "ALBUMARTIST=%albumartist%" -T "ALBUM ARTIST=%albumartist%" -T "COMMENT=EAC Secure Mode, Test & Copy, AccurateRip, FLAC -8" %source%


TOC of the extracted CD

Track | Start | Length | Start sector | End sector
––––––––––––––––––––––––––––-
1 | 0:00.00 | 6:49.57 | 0 | 30731
2 | 6:49.57 | 7:08.63 | 30732 | 62894
3 | 13:58.45 | 5:02.12 | 62895 | 85556
4 | 19:00.57 | 7:04.30 | 85557 | 117386
5 | 26:05.12 | 7:17.35 | 117387 | 150196
6 | 33:22.47 | 6:23.63 | 150197 | 178984
7 | 39:46.35 | 4:53.00 | 178985 | 200959


Track 1

Filename D:\_EAC\The Art Farmer Quartet featuring Jim Hall - Interaction (1963) [FLAC] {30XD-1039 rel 1988}\01 - Days Of Wine And Roses.wav

Pre-gap length 0:00:02.00

Peak level 86.3 %
Extraction speed 1.2 X
Track quality 100.0 %
Test CRC 675075A8
Copy CRC 675075A8
Accurately ripped (confidence 1) [EBBF81F1] (AR v1)
Copy OK

Track 2

Filename D:\_EAC\The Art Farmer Quartet featuring Jim Hall - Interaction (1963) [FLAC] {30XD-1039 rel 1988}\02 - By Myself.wav

Peak level 95.1 %
Extraction speed 1.4 X
Track quality 100.0 %
Test CRC 48255783
Copy CRC 48255783
Accurately ripped (confidence 1) [AF95004D] (AR v1)
Copy OK

Track 3

Filename D:\_EAC\The Art Farmer Quartet featuring Jim Hall - Interaction (1963) [FLAC] {30XD-1039 rel 1988}\03 - My Little Suede Shoes.wav

Peak level 89.1 %
Extraction speed 1.4 X
Track quality 100.0 %
Test CRC 302A26D3
Copy CRC 302A26D3
Accurately ripped (confidence 1) [7DD907CC] (AR v1)
Copy OK

Track 4

Filename D:\_EAC\The Art Farmer Quartet featuring Jim Hall - Interaction (1963) [FLAC] {30XD-1039 rel 1988}\04 - Embraceable You.wav

Peak level 91.4 %
Extraction speed 1.6 X
Track quality 100.0 %
Test CRC E3BBAB79
Copy CRC E3BBAB79
Accurately ripped (confidence 1) [DA61A442] (AR v1)
Copy OK

Track 5

Filename D:\_EAC\The Art Farmer Quartet featuring Jim Hall - Interaction (1963) [FLAC] {30XD-1039 rel 1988}\05 - My Kinda Love.wav

Peak level 100.0 %
Extraction speed 1.7 X
Track quality 100.0 %
Test CRC 7EF27AB3
Copy CRC 7EF27AB3
Accurately ripped (confidence 1) [D0442139] (AR v1)
Copy OK

Track 6

Filename D:\_EAC\The Art Farmer Quartet featuring Jim Hall - Interaction (1963) [FLAC] {30XD-1039 rel 1988}\06 - Sometime Ago.wav

Peak level 87.2 %
Extraction speed 1.8 X
Track quality 100.0 %
Test CRC C0F70387
Copy CRC C0F70387
Accurately ripped (confidence 1) [DF9DD477] (AR v1)
Copy OK

Track 7

Filename D:\_EAC\The Art Farmer Quartet featuring Jim Hall - Interaction (1963) [FLAC] {30XD-1039 rel 1988}\07 - Loads Of Love (bonus track).wav

Peak level 88.6 %
Extraction speed 1.8 X
Track quality 100.0 %
Test CRC 9A9CC7CE
Copy CRC 9A9CC7CE
Accurately ripped (confidence 1) [CE7953AD] (AR v1)
Copy OK


All tracks accurately ripped

No errors occurred

End of status report

==== Log checksum 13BD29A4469A9B846CBC0B18000077AEB8E3E6806CE750D7B43A4649078EB309 ====


The Art Farmer Quartet featuring Jim Hall - Interaction (1963) {Atlantic Warner Japan 30XD-1039 rel 1988}

The Art Farmer Quartet featuring Jim Hall - Interaction (1963) {Atlantic Warner Japan 30XD-1039 rel 1988}


the Artwork -> thanks to Mal…


===