Subcategories

Art Garfunkel - 7 Albums Collection (2012) {Columbia Sony Music Japan Mini LP Blu-spec CDs}

Posted By: ruskaval
Art Garfunkel -  7 Albums Collection (2012) {Columbia Sony Music Japan Mini LP Blu-spec CDs}

Art Garfunkel - 7 Albums Collection (2012) {Columbia Sony Music Japan Mini LP Blu-spec CDs}
EAC rip (secure mode) | FLAC (image)+CUE+LOG -> 2,17 Gb
Full Artwork @ 600 dpi (png) -> 1.79 Gb | DSD Mastering
© 2012 Columbia / Sony Music Japan | SICP-20426~7 / SICP-20428~33
Rock / Soft Rock / Contemporary Pop

Cardboard sleeve reissue from Art Garfunkel featuring the high-fidelity Blu-spec CD format (compatible with standard CD players) and 2012 DSD remastering. Part of a six-album Art Garfunkel Blu-spec CD cardboard sleeve reissue series featuring albums "Angel Clare," "Breakaway," "Watermark," "Fate For Breakfast," "Scissors Cut," and "Lefty." The Singer info: Greatest hits album release from Art Garfunkel including two new songs recorded in 2012. Features the high-fidelity Blu-spec CD format (compatible with standard CD players).

Art Garfunkel -  7 Albums Collection (2012) {Columbia Sony Music Japan Mini LP Blu-spec CDs}

Angel Clare (1973) [SICP-20428]


Garfunkel (he was billed without his first name here) had a lot riding on his debut solo album, and Angel Clare, named after a character in Thomas Hardy's novel Tess of the d'Urbervilles, lived up to the heightened expectations for the man who had sung "Bridge Over Troubled Water" and other Simon & Garfunkel favorites. Garfunkel took no chances, issuing as the first single Jimmy Webb's "All I Know," which was arranged in a similar style to "Bridge" and made the Top Ten. Elsewhere on the record, Garfunkel took a more spirited approach, notably on a version of Van Morrison's "I Shall Sing" that was reminiscent of Simon & Garfunkel's "Cecilia" and made the Top 40. Certainly, there was enough firepower on the record, which featured guitarists Jerry Garcia and J.J. Cale. But much of it was filled with stately, orchestra-laden ballads, sung by Garfunkel in his naïve, breathy tenor. If Simon & Garfunkel had been the thinking man's Everly Brothers, Garfunkel alone turned out to be the thinking man's Johnny Mathis.

tracklist:
01. Travelling Boy
02. Down In The Willow Garden
03. I Shall Sing
04. Old Man
05. Feuilles-Oh / Do Space Men Pass Dead Souls On Their Way To The Moon?
06. All I Know
07. Mary Was An Only Child
08. Woyaya
09. Barbara Allen
10. Another Lullaby
Bonus Tracks
11. Travelling Boy (Single Version)
12. Second Avenue

Art Garfunkel -  7 Albums Collection (2012) {Columbia Sony Music Japan Mini LP Blu-spec CDs}

Art Garfunkel -  7 Albums Collection (2012) {Columbia Sony Music Japan Mini LP Blu-spec CDs}

Exact Audio Copy V1.0 beta 3 from 29. August 2011

EAC extraction logfile from 5. November 2012, 13:11

Art Garfunkel / Angel Clare

Used drive : HL-DT-STDVDRAM GSA-H60N Adapter: 2 ID: 0

Read mode : Secure
Utilize accurate stream : Yes
Defeat audio cache : Yes
Make use of C2 pointers : No

Read offset correction : 667
Overread into Lead-In and Lead-Out : No
Fill up missing offset samples with silence : Yes
Delete leading and trailing silent blocks : No
Null samples used in CRC calculations : Yes
Used interface : Native Win32 interface for Win NT & 2000

Used output format : Internal WAV Routines
Sample format : 44.100 Hz; 16 Bit; Stereo


TOC of the extracted CD

Track | Start | Length | Start sector | End sector
––––––––––––––––––––––––––––-
1 | 0:00.00 | 5:02.00 | 0 | 22649
2 | 5:02.00 | 4:03.20 | 22650 | 40894
3 | 9:05.20 | 3:37.64 | 40895 | 57233
4 | 12:43.09 | 3:26.39 | 57234 | 72722
5 | 16:09.48 | 3:11.69 | 72723 | 87116
6 | 19:21.42 | 3:50.52 | 87117 | 104418
7 | 23:12.19 | 3:26.54 | 104419 | 119922
8 | 26:38.73 | 3:22.27 | 119923 | 135099
9 | 30:01.25 | 5:26.54 | 135100 | 159603
10 | 35:28.04 | 3:33.57 | 159604 | 175635
11 | 39:01.61 | 3:41.53 | 175636 | 192263
12 | 42:43.39 | 2:50.17 | 192264 | 205030


Range status and errors

Selected range

Filename C:\Documents and Settings\Admin\Рабочий стол\Rip by ALLexxess\Art Garfunkel\1973 Angel Clare (Sony Music Japan Mini LP Blu-spec CD 2012)\Art Garfunkel - Angel Clare.wav

Peak level 100.0 %
Extraction speed 5.7 X
Range quality 100.0 %
Test CRC 415787BB
Copy CRC 415787BB
Copy OK

No errors occurred


AccurateRip summary

Track 1 not present in database
Track 2 not present in database
Track 3 not present in database
Track 4 not present in database
Track 5 not present in database
Track 6 not present in database
Track 7 not present in database
Track 8 not present in database
Track 9 not present in database
Track 10 not present in database
Track 11 not present in database
Track 12 not present in database

None of the tracks are present in the AccurateRip database

End of status report

==== Log checksum 2DCE76B7F2FBF8BB1BA6FB10EA2159B53AC3A9E67B0A07515512CFFE81913437 ====



Art Garfunkel -  7 Albums Collection (2012) {Columbia Sony Music Japan Mini LP Blu-spec CDs}

Breakaway (1975) [SICP-20429]


The second time around, Art Garfunkel turned to pop producer Richard Perry, who liked to record in studios rather than cathedrals and who replaced the angelic style of the first album with a lush pop approach. The result was Garfunkel's best-selling album. The title track and a cover of "I Only Have Eyes for You" reached the Top 40 (the latter topped the U.K. charts), though the most prominent song was the Simon & Garfunkel reunion single "My Little Town." But the album was full of wise pop choices, among them Bruce Johnston's "Disney Girls," Stevie Wonder's "I Believe (When I Fall in Love It Will Be Forever)," and Hal David and Albert Hammond's "1199 Miles from L.A." Perry proved that, given the right material and production, the problem of the relative sameness of Garfunkel's vocal approach could be overcome.

tracklist:
01. I Believe (When I Fall In Love It Will Be Forever)
02. Rag Doll
03. Break Away
04. Disney Girls
05. Waters Of March
06. My Little Town
07. I Only Have Eyes For You
08. Looking For The Right One
09. 99 Miles From L.A.
10. The Same Old Tears On A New Background

Art Garfunkel -  7 Albums Collection (2012) {Columbia Sony Music Japan Mini LP Blu-spec CDs}

Art Garfunkel -  7 Albums Collection (2012) {Columbia Sony Music Japan Mini LP Blu-spec CDs}

Exact Audio Copy V1.0 beta 3 from 29. August 2011

EAC extraction logfile from 5. November 2012, 12:29

Art Garfunkel / Breakaway

Used drive : HL-DT-STDVDRAM GSA-H60N Adapter: 2 ID: 0

Read mode : Secure
Utilize accurate stream : Yes
Defeat audio cache : Yes
Make use of C2 pointers : No

Read offset correction : 667
Overread into Lead-In and Lead-Out : No
Fill up missing offset samples with silence : Yes
Delete leading and trailing silent blocks : No
Null samples used in CRC calculations : Yes
Used interface : Native Win32 interface for Win NT & 2000

Used output format : Internal WAV Routines
Sample format : 44.100 Hz; 16 Bit; Stereo


TOC of the extracted CD

Track | Start | Length | Start sector | End sector
––––––––––––––––––––––––––––-
1 | 0:00.00 | 3:49.58 | 0 | 17232
2 | 3:49.58 | 3:07.30 | 17233 | 31287
3 | 6:57.13 | 3:36.40 | 31288 | 47527
4 | 10:33.53 | 4:33.62 | 47528 | 68064
5 | 15:07.40 | 3:39.10 | 68065 | 84499
6 | 18:46.50 | 3:54.04 | 84500 | 102053
7 | 22:40.54 | 3:42.05 | 102054 | 118708
8 | 26:22.59 | 3:22.50 | 118709 | 133908
9 | 29:45.34 | 3:31.63 | 133909 | 149796
10 | 33:17.22 | 3:48.08 | 149797 | 166904


Range status and errors

Selected range

Filename C:\Documents and Settings\Admin\Рабочий стол\Rip by ALLexxess\Art Garfunkel\1975 Breakaway (Sony Music Japan Mini LP Blu-spec CD 2012)\Art Garfunkel - Breakaway.wav

Peak level 100.0 %
Extraction speed 5.4 X
Range quality 99.9 %
Test CRC 58D61C10
Copy CRC 58D61C10
Copy OK

No errors occurred


AccurateRip summary

Track 1 not present in database
Track 2 not present in database
Track 3 not present in database
Track 4 not present in database
Track 5 not present in database
Track 6 not present in database
Track 7 not present in database
Track 8 not present in database
Track 9 not present in database
Track 10 not present in database

None of the tracks are present in the AccurateRip database

End of status report

==== Log checksum F3B8B5DF103F7C417D0D7BC6783C8E0A8A8BB33D07CA306D6E0825FFD5519837 ====



Art Garfunkel -  7 Albums Collection (2012) {Columbia Sony Music Japan Mini LP Blu-spec CDs}

Watermark (1977) [SICP-20430]


The original idea was for Art Garfunkel to record an album of songs written by Jimmy Webb. But when the leadoff single, "Crying in My Sleep," failed to make the charts, Columbia Records withdrew the album and induced Garfunkel to put together a cover of Sam Cooke's "(What A) Wonderful World" with Paul Simon and James Taylor harmonizing. The single and a revised version of the album then made the Top 40. But Watermark is still a Garfunkel-Sings-Webb album, except for one song. And the initial idea was a good one: Garfunkel handles Webb's wistful pop songs well, and he has made good choices from Webb's songbook, dating back to the '60s, though avoiding his big bits. The result is Garfunkel's most cohesive solo album.

tracklist:
01. Crying In My Sleep
02. Marionette
03. Shine It On Me
04. Watermark
05. Saturday Suit
06. All My Love's Laughter
07. (What A) Wonderful World
08. Mr. Shuck 'N' Jive
09. Paper Chase
10. She Moved Through The Fair
11. Someone Else (1958)
12. Wooden Planes

Art Garfunkel -  7 Albums Collection (2012) {Columbia Sony Music Japan Mini LP Blu-spec CDs}

Art Garfunkel -  7 Albums Collection (2012) {Columbia Sony Music Japan Mini LP Blu-spec CDs}

Exact Audio Copy V1.0 beta 3 from 29. August 2011

EAC extraction logfile from 5. November 2012, 11:52

Art Garfunkel / Watermark

Used drive : HL-DT-STDVDRAM GSA-H60N Adapter: 2 ID: 0

Read mode : Secure
Utilize accurate stream : Yes
Defeat audio cache : Yes
Make use of C2 pointers : No

Read offset correction : 667
Overread into Lead-In and Lead-Out : No
Fill up missing offset samples with silence : Yes
Delete leading and trailing silent blocks : No
Null samples used in CRC calculations : Yes
Used interface : Native Win32 interface for Win NT & 2000

Used output format : Internal WAV Routines
Sample format : 44.100 Hz; 16 Bit; Stereo


TOC of the extracted CD

Track | Start | Length | Start sector | End sector
––––––––––––––––––––––––––––-
1 | 0:00.00 | 4:06.69 | 0 | 18518
2 | 4:06.69 | 2:34.05 | 18519 | 30073
3 | 6:40.74 | 3:31.02 | 30074 | 45900
4 | 10:12.01 | 2:53.61 | 45901 | 58936
5 | 13:05.62 | 3:17.20 | 58937 | 73731
6 | 16:23.07 | 3:58.12 | 73732 | 91593
7 | 20:21.19 | 3:30.48 | 91594 | 107391
8 | 23:51.67 | 4:49.04 | 107392 | 129070
9 | 28:40.71 | 2:38.63 | 129071 | 140983
10 | 31:19.59 | 3:46.48 | 140984 | 157981
11 | 35:06.32 | 2:19.33 | 157982 | 168439
12 | 37:25.65 | 3:12.26 | 168440 | 182865


Range status and errors

Selected range

Filename C:\Documents and Settings\Admin\Рабочий стол\Rip by ALLexxess\Art Garfunkel\1977 Watermark (Sony Music Japan Mini LP Blu-spec CD 2012)\Art Garfunkel - Watermark.wav

Peak level 100.0 %
Extraction speed 5.5 X
Range quality 99.9 %
Test CRC 0542FA8A
Copy CRC 0542FA8A
Copy OK

No errors occurred


AccurateRip summary

Track 1 not present in database
Track 2 not present in database
Track 3 not present in database
Track 4 not present in database
Track 5 not present in database
Track 6 not present in database
Track 7 not present in database
Track 8 not present in database
Track 9 not present in database
Track 10 not present in database
Track 11 not present in database
Track 12 not present in database

None of the tracks are present in the AccurateRip database

End of status report

==== Log checksum 9C0829457BFAD10E9C4A62F5281B2237A615A54C323EEAAB91B8785E9184E9CA ====



Art Garfunkel -  7 Albums Collection (2012) {Columbia Sony Music Japan Mini LP Blu-spec CDs}

Fate For Breakfast (1979) [SICP-20431]


For his fourth solo album, Art Garfunkel opted to make a light contemporary pop record on the order of Breakaway, but for the most part the material was mediocre and the backup slick and unfeeling. "Since I Don't Have You" was an obvious choice for a singer who had scored with a similar '50s oldie, "I Only Have Eyes for You," but it was the album's only chart single, and Fate for Breakfast was as disappointing at the cash register as it was on the turntable.

tracklist:
01. In A Little While (I'll Be On My Way)
02. Since I Don't Have You
03. And I Know
04. Sail On A Rainbow
05. Miss You Nights
06. Bright Eyes
07. Finally Found A Reason
08. Beyond The Tears
09. Oh How Happy
10. When Someone Doesn't Want You
11. Take Me Away

Art Garfunkel -  7 Albums Collection (2012) {Columbia Sony Music Japan Mini LP Blu-spec CDs}

Art Garfunkel -  7 Albums Collection (2012) {Columbia Sony Music Japan Mini LP Blu-spec CDs}

Exact Audio Copy V1.0 beta 3 from 29. August 2011

EAC extraction logfile from 4. November 2012, 23:37

Art Garfunkel / Fate For Breakfast

Used drive : HL-DT-STDVDRAM GSA-H60N Adapter: 2 ID: 0

Read mode : Secure
Utilize accurate stream : Yes
Defeat audio cache : Yes
Make use of C2 pointers : No

Read offset correction : 667
Overread into Lead-In and Lead-Out : No
Fill up missing offset samples with silence : Yes
Delete leading and trailing silent blocks : No
Null samples used in CRC calculations : Yes
Used interface : Native Win32 interface for Win NT & 2000

Used output format : Internal WAV Routines
Sample format : 44.100 Hz; 16 Bit; Stereo


TOC of the extracted CD

Track | Start | Length | Start sector | End sector
––––––––––––––––––––––––––––-
1 | 0:00.00 | 3:27.15 | 0 | 15539
2 | 3:27.15 | 3:38.60 | 15540 | 31949
3 | 7:06.00 | 3:40.47 | 31950 | 48496
4 | 10:46.47 | 3:47.22 | 48497 | 65543
5 | 14:33.69 | 3:46.74 | 65544 | 82567
6 | 18:20.68 | 3:58.45 | 82568 | 100462
7 | 22:19.38 | 2:38.58 | 100463 | 112370
8 | 24:58.21 | 3:51.64 | 112371 | 129759
9 | 28:50.10 | 2:39.42 | 129760 | 141726
10 | 31:29.52 | 3:33.30 | 141727 | 157731
11 | 35:03.07 | 4:39.44 | 157732 | 178700


Range status and errors

Selected range

Filename C:\Documents and Settings\Admin\Рабочий стол\Rip by ALLexxess\Art Garfunkel\1979 Fate For Breakfast (Sony Music Japan Mini LP Blu-spec CD 2012)\Art Garfunkel - Fate For Breakfast.wav

Peak level 100.0 %
Extraction speed 5.6 X
Range quality 100.0 %
Test CRC 005F2421
Copy CRC 005F2421
Copy OK

No errors occurred


AccurateRip summary

Track 1 not present in database
Track 2 not present in database
Track 3 not present in database
Track 4 not present in database
Track 5 not present in database
Track 6 not present in database
Track 7 not present in database
Track 8 not present in database
Track 9 not present in database
Track 10 not present in database
Track 11 not present in database

None of the tracks are present in the AccurateRip database

End of status report

==== Log checksum 6CB5F3BD39A27F27B48E675C5D01C27A8230C1F1461EEF27CCD97DF5708DBD2C ====



Art Garfunkel -  7 Albums Collection (2012) {Columbia Sony Music Japan Mini LP Blu-spec CDs}

Scissors Cut (1981) [SICP-20432]


After the disappointment of Fate for Breakfast, Art Garfunkel returned to old friends for his fifth solo album, co-producing with Roy Halee, who had worked with Simon & Garfunkel and on Garfunkel's debut album, Angel Clare, and singing several songs written by Jimmy Webb, who had written nearly all the songs on Garfunkel's third album, Watermark. But though Scissors Cut came closer to the sound of a good Garfunkel album, material remained a problem. "A Heart in New York," the LP's sole American chart single, was second-rate, as were many of the other compositions, Garfunkel scored a surprise number one hit in Great Britain with the Mike Batt-written and produced "Bright Eyes," the theme from the movie Watership Down, but that wasn't enough to make the album on the whole a success, Garfunkel then re-teamed with Paul Simon for a world concert tour, and it was five years before he was back in record stores with the seasonal release The Animals' Christmas and nearly seven years before his next regular solo album, Lefty.

tracklist:
01. A Heart In New York
02. Scissors Cut
03. Up In The World
04. Hang On In
05. So Easy To Begin
06. Bright Eyes
07. Can't Turn My Heart Away
08. The French Waltz
09. In Cars
10. That's All I've Got To Say (Theme From 'The Last Unicorn')

Art Garfunkel -  7 Albums Collection (2012) {Columbia Sony Music Japan Mini LP Blu-spec CDs}

Art Garfunkel -  7 Albums Collection (2012) {Columbia Sony Music Japan Mini LP Blu-spec CDs}

Exact Audio Copy V1.0 beta 3 from 29. August 2011

EAC extraction logfile from 4. November 2012, 23:02

Art Garfunkel / Scissors Cut

Used drive : HL-DT-STDVDRAM GSA-H60N Adapter: 2 ID: 0

Read mode : Secure
Utilize accurate stream : Yes
Defeat audio cache : Yes
Make use of C2 pointers : No

Read offset correction : 667
Overread into Lead-In and Lead-Out : No
Fill up missing offset samples with silence : Yes
Delete leading and trailing silent blocks : No
Null samples used in CRC calculations : Yes
Used interface : Native Win32 interface for Win NT & 2000

Used output format : Internal WAV Routines
Sample format : 44.100 Hz; 16 Bit; Stereo


TOC of the extracted CD

Track | Start | Length | Start sector | End sector
––––––––––––––––––––––––––––-
1 | 0:00.00 | 3:53.22 | 0 | 17496
2 | 3:53.22 | 3:13.60 | 17497 | 32031
3 | 7:07.07 | 2:18.63 | 32032 | 42444
4 | 9:25.70 | 3:47.74 | 42445 | 59543
5 | 13:13.69 | 2:54.69 | 59544 | 72662
6 | 16:08.63 | 3:23.40 | 72663 | 87927
7 | 19:32.28 | 3:11.44 | 87928 | 102296
8 | 22:43.72 | 3:13.27 | 102297 | 116798
9 | 25:57.24 | 3:48.34 | 116799 | 133932
10 | 29:45.58 | 1:55.50 | 133933 | 142607


Range status and errors

Selected range

Filename C:\Documents and Settings\Admin\Рабочий стол\Rip by ALLexxess\Art Garfunkel\1981 Scissors Cut (Sony Music Japan Mini LP Blu-spec CD 2012)\Art Garfunkel - Scissors Cut.wav

Peak level 100.0 %
Extraction speed 5.3 X
Range quality 100.0 %
Test CRC ED4B0093
Copy CRC ED4B0093
Copy OK

No errors occurred


AccurateRip summary

Track 1 not present in database
Track 2 not present in database
Track 3 not present in database
Track 4 not present in database
Track 5 not present in database
Track 6 not present in database
Track 7 not present in database
Track 8 not present in database
Track 9 not present in database
Track 10 not present in database

None of the tracks are present in the AccurateRip database

End of status report

==== Log checksum 42589EE726E6EB53276E2AC32FE1C45D27DC292D241259B89FE55DBDDF445713 ====



Art Garfunkel -  7 Albums Collection (2012) {Columbia Sony Music Japan Mini LP Blu-spec CDs}

Lefty (1988) [SICP-20433]


Art Garfunkel's first regular studio album in nearly seven years was a pleasant enough exercise that did nothing to arrest his commercial or artistic decline. The idea of covering "I Have a Love" from West Side Story was a good one, the obligatory '50s cover, "So Much in Love," was well performed, and "Love Is the Only Chain" was a good piece of material, even if better performed by authors Pam Rose and Mary Ann Kennedy (who joined Garfunkel on this recording). The version of "When a Man Loves a Woman," so far away from Percy Sledge's emotional original, served to illustrate Garfunkel's detached approach to his material. But much of the album consisted of second-rate songs, frequently written by Stephen Bishop.

tracklist:
01. This Is The Moment
02. I Have A Love
03. So Much In Love
04. Slow Breakup
05. Love Is The Only Chain
06. When A Man Loves A Woman
07. I Wonder Why
08. King Of Tonga
09. If Love Takes You Away
10. The Promise
Bonus Track
11. Sometimes When I'm Dreaming

Art Garfunkel -  7 Albums Collection (2012) {Columbia Sony Music Japan Mini LP Blu-spec CDs}

Art Garfunkel -  7 Albums Collection (2012) {Columbia Sony Music Japan Mini LP Blu-spec CDs}

Exact Audio Copy V1.0 beta 3 from 29. August 2011

EAC extraction logfile from 4. November 2012, 22:36

Art Garfunkel / Lefty

Used drive : HL-DT-STDVDRAM GSA-H60N Adapter: 2 ID: 0

Read mode : Secure
Utilize accurate stream : Yes
Defeat audio cache : Yes
Make use of C2 pointers : No

Read offset correction : 667
Overread into Lead-In and Lead-Out : No
Fill up missing offset samples with silence : Yes
Delete leading and trailing silent blocks : No
Null samples used in CRC calculations : Yes
Used interface : Native Win32 interface for Win NT & 2000

Used output format : Internal WAV Routines
Sample format : 44.100 Hz; 16 Bit; Stereo


TOC of the extracted CD

Track | Start | Length | Start sector | End sector
––––––––––––––––––––––––––––-
1 | 0:00.00 | 4:32.20 | 0 | 20419
2 | 4:32.20 | 4:28.67 | 20420 | 40586
3 | 9:01.12 | 2:25.04 | 40587 | 51465
4 | 11:26.16 | 3:46.38 | 51466 | 68453
5 | 15:12.54 | 4:08.51 | 68454 | 87104
6 | 19:21.30 | 4:30.24 | 87105 | 107378
7 | 23:51.54 | 3:23.56 | 107379 | 122659
8 | 27:15.35 | 3:26.74 | 122660 | 138183
9 | 30:42.34 | 3:48.73 | 138184 | 155356
10 | 34:31.32 | 3:59.56 | 155357 | 173337
11 | 38:31.13 | 3:41.50 | 173338 | 189962


Range status and errors

Selected range

Filename C:\Documents and Settings\Admin\Рабочий стол\Rip by ALLexxess\Art Garfunkel\1988 Lefty (Sony Music Japan Mini LP Blu-spec CD 2012)\Art Garfunkel - Lefty.wav

Peak level 100.0 %
Extraction speed 5.5 X
Range quality 99.9 %
Test CRC 02A9B5EE
Copy CRC 02A9B5EE
Copy OK

No errors occurred


AccurateRip summary

Track 1 not present in database
Track 2 not present in database
Track 3 not present in database
Track 4 not present in database
Track 5 not present in database
Track 6 not present in database
Track 7 not present in database
Track 8 not present in database
Track 9 not present in database
Track 10 not present in database
Track 11 not present in database

None of the tracks are present in the AccurateRip database

End of status report

==== Log checksum 3BD3E80482BEF97CFA11D0A8E609C5CB2076C7A466F71952116A94052CE590FB ====



Art Garfunkel -  7 Albums Collection (2012) {Columbia Sony Music Japan Mini LP Blu-spec CDs}

The Singer (2CD 2012) [SICP-20426/7]


Legacy's 2011 collection of Paul Simon's solo recordings was called Songwriter, so logic dictates that the companion two-disc set of Art Garfunkel solo material should be dubbed The Singer. Then again, what else could it be called? Garfunkel never was a writer; he was only a singer, and even at his best he wasn't exactly an interpreter – he sang the songs as they were written, always to the best of his abilities. This comprehensive but non-chronological 34-track retrospective does a superb job of rounding up Art's highlights, beginning with the heavy-hitters from Simon & Garfunkel ("Bridge Over Troubled Water," "For Emily, Whenever I May Find Her," "Scarborough Fair/Canticle," "Kathy's Song," "The Sound of Silence," "So Long, Frank Lloyd Wright," "April Come She Will," "My Little Town") and running through many of his hit singles ("All I Know," "I Only Have Eyes for You," "Break Away," "[What A] Wonderful World," "A Heart in New York"), adding deep album cuts and a couple of new recordings for good measure. At two discs, this can be a lot to digest in one sitting – there's variety in the production but it's all soft and sweet – but The Singer remains a thorough testament to Art Garfunkel's unique gifts.

tracklist:
CD1
01. Bridge Over Troubled Water / Simon & Garfunkel
02. All I Know
03. Perfect Moment
04. For Emily, Whenever I May Find Her (Duet With James Taylor)
05. Crying In The Rain
06. I Only Have Eyes For You / Simon & Garfunkel
07. 99 Miles From L.A.
08. (What A) Wonderful World (With James Taylor And Paul Simon)
09. Bright Eyes
10. Two Sleepy People
11. Skywriter
12. Scarborough Fair/Canticle / Simon & Garfunkel
13. Some Enchanted Evening
14. The Promise
15. The Thread
16. Lena
17. Barbara

CD2
01. Kathy's Song / Simon & Garfunkel
02. Long Way Home
03. Scissor Cut
04. The Sound Of Silence / Simon & Garfunkel
05. Breakaway
06. So Long, Frank Lloyd Wright / Simon & Garfunkel
07. Waters Of March
08. The Decree
09. I Wonder Why
10. Disney Girls
11. My Little Town / Simon & Garfunkel
12. O Come All Ye Faithful
13. A Heart In New York
14. I've Grown Accustomed To Her Face
15. April Come She / Simon & Garfunkel
16. When A Man Loves A Woman
17. In Cars

Art Garfunkel -  7 Albums Collection (2012) {Columbia Sony Music Japan Mini LP Blu-spec CDs}

Art Garfunkel -  7 Albums Collection (2012) {Columbia Sony Music Japan Mini LP Blu-spec CDs}

Exact Audio Copy V1.0 beta 3 from 29. August 2011

EAC extraction logfile from 4. November 2012, 21:57

Art Garfunkel / The Singer CD1

Used drive : HL-DT-STDVDRAM GSA-H60N Adapter: 2 ID: 0

Read mode : Secure
Utilize accurate stream : Yes
Defeat audio cache : Yes
Make use of C2 pointers : No

Read offset correction : 667
Overread into Lead-In and Lead-Out : No
Fill up missing offset samples with silence : Yes
Delete leading and trailing silent blocks : No
Null samples used in CRC calculations : Yes
Used interface : Native Win32 interface for Win NT & 2000

Used output format : Internal WAV Routines
Sample format : 44.100 Hz; 16 Bit; Stereo


TOC of the extracted CD

Track | Start | Length | Start sector | End sector
––––––––––––––––––––––––––––-
1 | 0:00.00 | 4:51.68 | 0 | 21892
2 | 4:51.68 | 2:06.56 | 21893 | 31398
3 | 6:58.49 | 3:54.69 | 31399 | 49017
4 | 10:53.43 | 2:18.36 | 49018 | 59403
5 | 13:12.04 | 3:33.06 | 59404 | 75384
6 | 16:45.10 | 3:09.74 | 75385 | 89633
7 | 19:55.09 | 3:24.33 | 89634 | 104966
8 | 23:19.42 | 3:23.38 | 104967 | 120229
9 | 26:43.05 | 3:57.02 | 120230 | 138006
10 | 30:40.07 | 3:37.25 | 138007 | 154306
11 | 34:17.32 | 4:12.66 | 154307 | 173272
12 | 38:30.23 | 3:09.27 | 173273 | 187474
13 | 41:39.50 | 3:33.00 | 187475 | 203449
14 | 45:12.50 | 3:55.47 | 203450 | 221121
15 | 49:08.22 | 4:13.59 | 221122 | 240155
16 | 53:22.06 | 4:39.60 | 240156 | 261140
17 | 58:01.66 | 5:24.73 | 261141 | 285513


Range status and errors

Selected range

Filename C:\Documents and Settings\Admin\Рабочий стол\Rip by ALLexxess\Art Garfunkel\2012 The Singer (2 Blu-spec CD Set Sony Music Japan)\CD1\Art Garfunkel - The Singer CD1.wav

Peak level 100.0 %
Extraction speed 6.1 X
Range quality 100.0 %
Test CRC 66B13A5F
Copy CRC 66B13A5F
Copy OK

No errors occurred


AccurateRip summary

Track 1 not present in database
Track 2 not present in database
Track 3 not present in database
Track 4 not present in database
Track 5 not present in database
Track 6 not present in database
Track 7 not present in database
Track 8 not present in database
Track 9 not present in database
Track 10 not present in database
Track 11 not present in database
Track 12 not present in database
Track 13 not present in database
Track 14 not present in database
Track 15 not present in database
Track 16 not present in database
Track 17 not present in database

None of the tracks are present in the AccurateRip database

End of status report

==== Log checksum 447758C2CA85D4027EB21BFEC97E0CE96FD19BFCBA1DCD9208670E882187FD1A ====

Exact Audio Copy V1.0 beta 3 from 29. August 2011

EAC extraction logfile from 4. November 2012, 21:12

Art Garfunkel / The Singer CD2

Used drive : HL-DT-STDVDRAM GSA-H60N Adapter: 2 ID: 0

Read mode : Secure
Utilize accurate stream : Yes
Defeat audio cache : Yes
Make use of C2 pointers : No

Read offset correction : 667
Overread into Lead-In and Lead-Out : No
Fill up missing offset samples with silence : Yes
Delete leading and trailing silent blocks : No
Null samples used in CRC calculations : Yes
Used interface : Native Win32 interface for Win NT & 2000

Used output format : Internal WAV Routines
Sample format : 44.100 Hz; 16 Bit; Stereo


TOC of the extracted CD

Track | Start | Length | Start sector | End sector
––––––––––––––––––––––––––––-
1 | 0:00.00 | 3:42.17 | 0 | 16666
2 | 3:42.17 | 4:30.38 | 16667 | 36954
3 | 8:12.55 | 3:51.36 | 36955 | 54315
4 | 12:04.16 | 3:06.26 | 54316 | 68291
5 | 15:10.42 | 3:31.72 | 68292 | 84188
6 | 18:42.39 | 3:15.65 | 84189 | 98878
7 | 21:58.29 | 3:35.20 | 98879 | 115023
8 | 25:33.49 | 3:27.42 | 115024 | 130590
9 | 29:01.16 | 3:22.64 | 130591 | 145804
10 | 32:24.05 | 4:29.44 | 145805 | 166023
11 | 36:53.49 | 3:48.29 | 166024 | 183152
12 | 40:42.03 | 2:05.03 | 183153 | 192530
13 | 42:47.06 | 3:03.08 | 192531 | 206263
14 | 45:50.14 | 2:46.59 | 206264 | 218772
15 | 48:36.73 | 1:48.31 | 218773 | 226903
16 | 50:25.29 | 4:13.74 | 226904 | 245952
17 | 54:39.28 | 3:13.54 | 245953 | 260481


Range status and errors

Selected range

Filename C:\Documents and Settings\Admin\Рабочий стол\Rip by ALLexxess\Art Garfunkel\2012 The Singer (2 Blu-spec CD Set Sony Music Japan)\CD2\Art Garfunkel - The Singer CD2.wav

Peak level 100.0 %
Extraction speed 6.1 X
Range quality 99.9 %
Test CRC EDFF0672
Copy CRC EDFF0672
Copy OK

No errors occurred


AccurateRip summary

Track 1 not present in database
Track 2 not present in database
Track 3 not present in database
Track 4 not present in database
Track 5 not present in database
Track 6 not present in database
Track 7 not present in database
Track 8 not present in database
Track 9 not present in database
Track 10 not present in database
Track 11 not present in database
Track 12 not present in database
Track 13 not present in database
Track 14 not present in database
Track 15 not present in database
Track 16 not present in database
Track 17 not present in database

None of the tracks are present in the AccurateRip database

End of status report

==== Log checksum 11763D7EAA92BE7C9A7F0C81D81C59D0754CC7E0FB81415BD5731020D264FC8D ====



Special Thanks to ALLexxess!