Subcategories

Art Pepper - So In Love (1979) [Analogue Productions Remastered 2004]

Posted By: Bezz
Art Pepper - So In Love (1979) [Analogue Productions Remastered 2004]

Art Pepper - So In Love (1979) [Analogue Productions Remastered 2004]
EAC rip | FLAC + CUE + LOG | Full Scans | 460 Mb (Incl. Recovery)
Genre ~ Post-Bop, Saxophone Jazz | Label ~ Analogue Productions CAPR 3013 SA

This deluxe release from the classy (but long defunct) Artists House label, as with all of Art Pepper's recordings of his comeback years, is easily recommended. Actually all of the music on So in Love has been reissued in greatly expanded form in Pepper's massive 16-CD Galaxy box set. The original LP has lengthy versions of "So in Love," "Stardust," "Straight No Chaser" and two Pepper originals ("Diane" and "Blues for Blanche"). Assisted by two equally talented rhythm sections (pianists Hank Jones and George Cables, bassists Ron Carter and Charlie Haden, and drummers Al Foster and Billy Higgins), Pepper is in excellent form throughout the album, giving these songs heart-wrenching interpretations. ~ AllMusic


Tracklist

01. Straight No Chaser
02. Blues For Blanche
03. So In Love
04. Diane
05. Stardust


Personel

Art Pepper (alto saxophone);
George Cables, Hank Jones (piano);
Ron Carter , Charlie Haden (double bass);
Al Foster, Billy Higgins (drums).


Exact Audio Copy V0.99 prebeta 4 from 23. January 2008

EAC extraction logfile from 14. November 2010, 12:19

Art Pepper / So In Love

Used drive : PLEXTOR DVDR PX-755A Adapter: 1 ID: 1

Read mode : Secure
Utilize accurate stream : Yes
Defeat audio cache : Yes
Make use of C2 pointers : No

Read offset correction : 30
Overread into Lead-In and Lead-Out : No
Fill up missing offset samples with silence : Yes
Delete leading and trailing silent blocks : No
Null samples used in CRC calculations : Yes
Used interface : Installed external ASPI interface
Gap handling : Appended to previous track

Used output format : User Defined Encoder
Selected bitrate : 896 kBit/s
Quality : High
Add ID3 tag : No
Command line compressor : C:\Program Files\Exact Audio Copy\Flac\flac.exe
Additional command line options : -8 -V -T "ARTIST=%a" -T "TITLE=%t" -T "ALBUM=%g" -T "DATE=%y" -T "TRACKNUMBER=%n" -T "TOTALTRACKS=%x" -T "GENRE=%m" -T "ALBUM ARTIST=%v" -T "ALBUMARTIST=%v" -T "COMMENT=EAC V0.99 prebeta 4, Secure Mode, Test & Copy, Accurat


TOC of the extracted CD

Track | Start | Length | Start sector | End sector
––––––––––––––––––––––––––––-
1 | 0:00.00 | 6:24.18 | 0 | 28817
2 | 6:24.18 | 6:47.30 | 28818 | 59372
3 | 13:11.48 | 11:35.65 | 59373 | 111562
4 | 24:47.38 | 12:16.46 | 111563 | 166808
5 | 37:04.09 | 10:35.49 | 166809 | 214482


Track 1

Filename Z:\Art Pepper - So In Love (1979) [FLAC] {Hybrid SACD APR 3013 SA}\01 - Straight No Chaser.wav

Pre-gap length 0:00:02.00

Peak level 92.8 %
Track quality 100.0 %
Test CRC BF881991
Copy CRC BF881991
Accurately ripped (confidence 6) [29AC442D]
Copy OK

Track 2

Filename Z:\Art Pepper - So In Love (1979) [FLAC] {Hybrid SACD APR 3013 SA}\02 - Blues For Blanche.wav

Pre-gap length 0:00:01.36

Peak level 87.5 %
Track quality 100.0 %
Test CRC AD9CFD9E
Copy CRC AD9CFD9E
Accurately ripped (confidence 6) [7FFD3653]
Copy OK

Track 3

Filename Z:\Art Pepper - So In Love (1979) [FLAC] {Hybrid SACD APR 3013 SA}\03 - So In Love.wav

Pre-gap length 0:00:02.72

Peak level 97.6 %
Track quality 100.0 %
Test CRC E44B4A37
Copy CRC E44B4A37
Accurately ripped (confidence 6) [B21CBED2]
Copy OK

Track 4

Filename Z:\Art Pepper - So In Love (1979) [FLAC] {Hybrid SACD APR 3013 SA}\04 - Diane.wav

Pre-gap length 0:00:02.77

Peak level 80.4 %
Track quality 100.0 %
Test CRC BF7C5841
Copy CRC BF7C5841
Accurately ripped (confidence 6) [6DC170D1]
Copy OK

Track 5

Filename Z:\Art Pepper - So In Love (1979) [FLAC] {Hybrid SACD APR 3013 SA}\05 - Stardust.wav

Pre-gap length 0:00:02.58

Peak level 95.0 %
Track quality 100.0 %
Test CRC C05996C7
Copy CRC C05996C7
Accurately ripped (confidence 6) [C046C696]
Copy OK


All tracks accurately ripped

No errors occurred

End of status report


Art Pepper - So In Love (1979) [Analogue Productions Remastered 2004]


Art Pepper - So In Love (1979) [Analogue Productions Remastered 2004]


Special thanks to the original uploader, pr3ss!