Subcategories

Artie Shaw - The Jazz Collector Edition (1990)

Posted By: Domestos
Artie Shaw - The Jazz Collector Edition (1990)

Artie Shaw - The Jazz Collector Edition (1990)
EAC Rip | FLAC (tracks+.cue, log) ~ 235.99 Mb | 48:48 | Scans included
Swing, Big Band | Country: USA | Label: LaserLight Digital (Delta Music GmbH) (15 713)

Artie Shaw (born Arthur Jacob Arshawsky; May 23, 1910 – December 30, 2004) was an American clarinetist, composer, bandleader, and actor. Also an author, Shaw wrote both fiction and non-fiction. Widely regarded as "one of jazz's finest clarinetists," Shaw led one of the United States' most popular big bands in the late 1930s through the early 1940s. Though he had numerous hit records, he was perhaps best known for his 1938 recording of Cole Porter's "Begin the Beguine." Prior to the release of "Beguine," Shaw and his fledgling band had languished in relative obscurity for over two years and, after its release, he became a major pop artist within short order. The record eventually became one of the era's defining recordings. Musically restless, Shaw was also an early proponent of what became known much later as Third Stream music, which blended elements of classical and jazz forms and traditions. His music influenced other musicians, such as John Barry in England, with the vamp of the James Bond Theme, possibly influenced by "Nightmare," which also has a similar vamp to Kurt Weill's "Lonely House."

Shaw also recorded with small jazz groups drawn from within the ranks of the various big bands he led. He served in the US Navy from 1942 to 1944, (during which time he led a morale-building band that toured the South Pacific amidst the chaos of World War II) and, following his discharge in 1944, he returned to lead a band through 1945. Following the breakup of that band, he began to focus on other interests and gradually withdrew from the world of being a professional musician and major celebrity, although he remained a force in popular music and jazz before retiring from music completely in 1954.

Personnel:
1: Oh! Lady Be Good
Chuck Peterson, Harry Geller, Bernie Privin (tp); George Arus, Les Jenkins, Harry Rogers (tb); Artie Shaw (fcl, Idr); Les Robinson, Hank Freeman (as); Tony Pastor, Georgie Auld (ts); Bob Kitsis (p); Al Avola (g); Sid Weiss (b); George Wettling (dm)

2: Deep Purple
Helen Forrest (voc.) same personnel as "Oh! Lady Be Good"; but Buddy Rich (dm) replaces George Wettling

3: What Is This Thing Called Love
4: Nightmare
Chuck Peterson, John Best, Claude Bowen (tp); George Arus, Russell Brown, Harry Rogers (tb); Artie Shaw (cl, Idr); George Koenig, Hank Freeman (as); Tony Pastor, Ronnie Perry (ts); Les Burness (p); Al Avola (g); Sid Weiss (b); Cliff Leeman (dm)

5: Indian Love Call
6: Begin The Beguine
10: Back Bay Shuffle
Tony Pastor & The Band (voc); Chuck Peterson, John Best, Claude Bowen (tp); George Arus, Harry Rogers, Ted Vesely (tb); Artie Shaw (cl, Idr); Les Robinson, Hank Freeman (as); Tony Pastor (ts, voc.); Ronny Perry (ts); Les Burness (p); Al Avola (g); Sid Weiss (b); Cliff Leeman (dm) 7: Traffic Jam

11: Comes Love
12: Serenade To A Savage
Chuck Peterson, John Best, Bernie Privin (tp); George Arus, Les Jenkins, Harry Rogers (tb); Artie Shaw (cl, Idr); Les Robinson, Hank Freeman (as); Tony Pastor, Georgie Auld (ts); Bob Kitsis (p); Al Avola (g); Sid Weiss (b); Buddy Rich (dm)
11: additional: Helen Forrest (voc)

8: Stardust
15: Temptation
16: Moonglow
George Wendt, J. Cathcart, Billy Butterfield (tp); Jack Jenney, Vernon Brown (tb); Artie Shaw (cl, Idr); Bus Bassey, Nelly Plump (as); Les Robinson, Jerry Jerome (ts); Johnny Guarneri (p); Al Hendrickson (e-g); Jud DeNaut (b); Nick Fatool (dm) + strings: T. Boardman, T. Klages, B. Bower, B. Morrow, Al Beller, E. Lamas (vln); A. Harshman, K. Collins (viola); F. Goerner (cello)
16: additional: Ray Conniff (tb)

9: Summit Ridge Drive ("Artie Shaw & His Gramercy Five")
14: Special Delivery Stomp
Billy Butterfield (tp); Artie Shaw (cl); Johnny Guarneri (harpsichord); Al Hendrickson (e-g); Jud DeNaut (b); Nick Fatool (dm)

13: Frenesi
Charlie Margulis, Mannie Klein, George Thow (tp); Randall Miller, Bill Rank, Babe Bowman (tb); Artie Shaw (cl, Idr); Blake Reynolds, Bud Carlton, Jack Stacey (as); Dick Clark (ts); Joe Krechter (bcl); Jack Cave (frh); Morton Ruderman (fl); Phil Nemoli (oboe); Stan Wrightsman (p); Bobby Sherwood (g); Jud DeNaut (b); Carl Maud (dm) + string section: Mark Levant, Harry Bluestone, Peter Eisenberg, Robert Barene, Sid Brokaw, Dave Cracov, Alex Law, Jerry Joyce (vln); David Sturkin, Stanley Spiegelman, Jack Gray (viola); Irving Lipschultz, Jules Tennenbaum (cello)

Track List:
1. Artie Shaw & His Orchestra - Oh! Lady Be Good (G. Gershwin) 3:06 - rec.: 27. 08. 1939
2. Artie Shaw & His Orchestra & Helen Forrest - Deep Purple (DeRose) 3:10 - гес.: 12. 03. 1939
3. Artie Shaw & His Orchestra - What Is This Thing Called Love? (Cole Porter) 3:13 - rec.: 27. 09. 1938
4. Artie Shaw & His Orchestra - Nightmare (Shaw) 2:48 - rec.: 27. 09. 1938
5. Artie Shaw & His Orchestra & Tony Pastor - Indian Love Call (Hammerstein, Harbach, Friml) 3:06 - rec.: 24. 07. 1938
6. Artie Shaw & His Orchestra - Begin The Beguine (Cole Porter) 3:11 - rec.: 24. 07. 1938
7. Artie Shaw & His Orchestra - Traffic Jam (Shaw, Macrae) 2:13 - rec.: 12. 06. 1939
8. Artie Shaw & His Orchestra - Stardust (Carmichael, Parrish) 3:29 - rec.: 07. 10. 1940
9. Artie Shaw & His Gramercy Five - Summit Ridge Drive (Shaw) 3:19 - rec.: 03. 09. 1940
10. Artie Shaw & His Orchestra - Back Bay Shuffle (Shaw, Macrae) 3:11 - rec.: 24. 07. 1938
11. Artie Shaw & His Orchestra & Helen Forrest - Comes Love (Tobias, Brown, Stept) 3:12 - rec.: 12. 06. 1939
12. Artie Shaw & His Orchestra - Serenade To A Savage (Garland) 2:28 - rec.: 22. 06. 1939
13. Artie Shaw & His Orchestra - Frenesi (Dominguez) 3:00 - rec.: 03. 03. 1940
14. Artie Shaw & His Gramercy Five - Special Delivery Stomp (Shaw) 2:42 - rec.: 03. 09. 1940
15. Artie Shaw & His Orchestra - Temptation (Freed, Brown) 3:02 - rec.: 07. 09. 1940
16. Artie Shaw & His Orchestra - Moonglow (Delange, Mills, Hudson) 3:24 - rec.: 23. 01. 1941

Artie Shaw - The Jazz Collector Edition (1990)

Exact Audio Copy V1.3 from 2. September 2016

EAC extraction logfile from 7. September 2017, 14:44

Artie Shaw / The Jazz Collector Edition

Used drive : HL-DT-STDVDRAM GSA-T50N Adapter: 1 ID: 0

Read mode : Secure
Utilize accurate stream : Yes
Defeat audio cache : Yes
Make use of C2 pointers : No

Read offset correction : 667
Overread into Lead-In and Lead-Out : No
Fill up missing offset samples with silence : Yes
Delete leading and trailing silent blocks : No
Null samples used in CRC calculations : Yes
Used interface : Native Win32 interface for Win NT & 2000
Gap handling : Appended to previous track

Used output format : User Defined Encoder
Selected bitrate : 1024 kBit/s
Quality : High
Add ID3 tag : No
Command line compressor : C:\Program Files\Exact Audio Copy\Flac\flac.exe
Additional command line options : -V -8 -T "Genre=%genre%" -T "Artist=%artist%" -T "Title=%title%" -T "Album=%albumtitle%" -T "Date=%year%" -T "Tracknumber=%tracknr%" %source% -o %dest%

TOC of the extracted CD

Track | Start | Length | Start sector | End sector
––––––––––––––––––––––––––––-
1 | 0:00.33 | 3:06.20 | 33 | 14002
2 | 3:06.53 | 3:11.15 | 14003 | 28342
3 | 6:17.68 | 3:14.00 | 28343 | 42892
4 | 9:31.68 | 2:49.05 | 42893 | 55572
5 | 12:20.73 | 3:06.70 | 55573 | 69592
6 | 15:27.68 | 3:12.50 | 69593 | 84042
7 | 18:40.43 | 2:13.17 | 84043 | 94034
8 | 20:53.60 | 3:29.53 | 94035 | 109762
9 | 24:23.38 | 3:19.65 | 109763 | 124752
10 | 27:43.28 | 3:11.70 | 124753 | 139147
11 | 30:55.23 | 3:13.00 | 139148 | 153622
12 | 34:08.23 | 2:29.32 | 153623 | 164829
13 | 36:37.55 | 3:01.08 | 164830 | 178412
14 | 39:38.63 | 2:42.70 | 178413 | 190632
15 | 42:21.58 | 3:02.50 | 190633 | 204332
16 | 45:24.33 | 3:24.25 | 204333 | 219657

Track 1

Filename C:\music\MG rips\Artie Shaw - The Jazz Collector Edition - 1990 (LaserLight Digital 15 713) [FLAC]\01 - Oh! Lady Be Good.wav

Pre-gap length 0:00:02.33

Peak level 77.0 %
Extraction speed 2.0 X
Track quality 99.9 %
Test CRC 5C2C3787
Copy CRC 5C2C3787
Accurately ripped (confidence 3) [7C28B023] (AR v2)
Copy OK

Track 2

Filename C:\music\MG rips\Artie Shaw - The Jazz Collector Edition - 1990 (LaserLight Digital 15 713) [FLAC]\02 - Deep Purple.wav

Peak level 75.5 %
Extraction speed 2.1 X
Track quality 99.9 %
Test CRC 690F8520
Copy CRC 690F8520
Accurately ripped (confidence 3) [2AD7BD20] (AR v2)
Copy OK

Track 3

Filename C:\music\MG rips\Artie Shaw - The Jazz Collector Edition - 1990 (LaserLight Digital 15 713) [FLAC]\03 - What Is This Thing Called Love.wav

Peak level 64.9 %
Extraction speed 2.7 X
Track quality 100.0 %
Test CRC 084EE126
Copy CRC 084EE126
Accurately ripped (confidence 3) [A0A9CE16] (AR v2)
Copy OK

Track 4

Filename C:\music\MG rips\Artie Shaw - The Jazz Collector Edition - 1990 (LaserLight Digital 15 713) [FLAC]\04 - Nightmare.wav

Peak level 82.5 %
Extraction speed 2.8 X
Track quality 100.0 %
Test CRC 72F19822
Copy CRC 72F19822
Accurately ripped (confidence 3) [9A2A3325] (AR v2)
Copy OK

Track 5

Filename C:\music\MG rips\Artie Shaw - The Jazz Collector Edition - 1990 (LaserLight Digital 15 713) [FLAC]\05 - Indian Love Call.wav

Peak level 68.9 %
Extraction speed 3.0 X
Track quality 100.0 %
Test CRC 5BCBF4B4
Copy CRC 5BCBF4B4
Accurately ripped (confidence 3) [04FBA793] (AR v2)
Copy OK

Track 6

Filename C:\music\MG rips\Artie Shaw - The Jazz Collector Edition - 1990 (LaserLight Digital 15 713) [FLAC]\06 - Begin The Beguine.wav

Peak level 68.4 %
Extraction speed 3.2 X
Track quality 100.0 %
Test CRC 2BE36AB1
Copy CRC 2BE36AB1
Accurately ripped (confidence 3) [CD95ED8A] (AR v2)
Copy OK

Track 7

Filename C:\music\MG rips\Artie Shaw - The Jazz Collector Edition - 1990 (LaserLight Digital 15 713) [FLAC]\07 - Traffic Jam.wav

Pre-gap length 0:00:01.13

Peak level 72.3 %
Extraction speed 3.1 X
Track quality 100.0 %
Test CRC F266A591
Copy CRC F266A591
Accurately ripped (confidence 3) [3E3A49B4] (AR v2)
Copy OK

Track 8

Filename C:\music\MG rips\Artie Shaw - The Jazz Collector Edition - 1990 (LaserLight Digital 15 713) [FLAC]\08 - Stardust.wav

Pre-gap length 0:00:00.47

Peak level 73.5 %
Extraction speed 3.4 X
Track quality 100.0 %
Test CRC EEC8B207
Copy CRC EEC8B207
Accurately ripped (confidence 3) [BBE21A33] (AR v2)
Copy OK

Track 9

Filename C:\music\MG rips\Artie Shaw - The Jazz Collector Edition - 1990 (LaserLight Digital 15 713) [FLAC]\09 - Summit Ridge Drive.wav

Pre-gap length 0:00:00.53

Peak level 66.9 %
Extraction speed 3.1 X
Track quality 99.9 %
Test CRC D0BC2F56
Copy CRC D0BC2F56
Accurately ripped (confidence 3) [69FFEA20] (AR v2)
Copy OK

Track 10

Filename C:\music\MG rips\Artie Shaw - The Jazz Collector Edition - 1990 (LaserLight Digital 15 713) [FLAC]\10 - Back Bay Shuffle.wav

Pre-gap length 0:00:00.60

Peak level 87.0 %
Extraction speed 3.7 X
Track quality 100.0 %
Test CRC 011BC88C
Copy CRC 011BC88C
Accurately ripped (confidence 3) [F0250D0F] (AR v2)
Copy OK

Track 11

Filename C:\music\MG rips\Artie Shaw - The Jazz Collector Edition - 1990 (LaserLight Digital 15 713) [FLAC]\11 - Comes Love.wav

Pre-gap length 0:00:00.60

Peak level 63.5 %
Extraction speed 3.8 X
Track quality 100.0 %
Test CRC 24514481
Copy CRC 24514481
Accurately ripped (confidence 3) [904CFC73] (AR v2)
Copy OK

Track 12

Filename C:\music\MG rips\Artie Shaw - The Jazz Collector Edition - 1990 (LaserLight Digital 15 713) [FLAC]\12 - Serenade To A Savage.wav

Pre-gap length 0:00:00.43

Peak level 64.7 %
Extraction speed 3.7 X
Track quality 100.0 %
Test CRC 89E08ED4
Copy CRC 89E08ED4
Accurately ripped (confidence 3) [A34C4EA6] (AR v2)
Copy OK

Track 13

Filename C:\music\MG rips\Artie Shaw - The Jazz Collector Edition - 1990 (LaserLight Digital 15 713) [FLAC]\13 - Frenesi.wav

Pre-gap length 0:00:01.02

Peak level 70.0 %
Extraction speed 3.9 X
Track quality 100.0 %
Test CRC 7F491A48
Copy CRC 7F491A48
Accurately ripped (confidence 3) [98C38F52] (AR v2)
Copy OK

Track 14

Filename C:\music\MG rips\Artie Shaw - The Jazz Collector Edition - 1990 (LaserLight Digital 15 713) [FLAC]\14 - Special Delivery Stomp.wav

Pre-gap length 0:00:00.44

Peak level 55.5 %
Extraction speed 3.9 X
Track quality 100.0 %
Test CRC B2DBCC89
Copy CRC B2DBCC89
Accurately ripped (confidence 3) [1B6061C8] (AR v2)
Copy OK

Track 15

Filename C:\music\MG rips\Artie Shaw - The Jazz Collector Edition - 1990 (LaserLight Digital 15 713) [FLAC]\15 - Temptation.wav

Pre-gap length 0:00:00.45

Peak level 69.3 %
Extraction speed 4.2 X
Track quality 100.0 %
Test CRC 9841746E
Copy CRC 9841746E
Accurately ripped (confidence 3) [44AF89D3] (AR v2)
Copy OK

Track 16

Filename C:\music\MG rips\Artie Shaw - The Jazz Collector Edition - 1990 (LaserLight Digital 15 713) [FLAC]\16 - Moonglow.wav

Pre-gap length 0:00:00.65

Peak level 68.8 %
Extraction speed 4.4 X
Track quality 100.0 %
Test CRC 953A3FCE
Copy CRC 953A3FCE
Accurately ripped (confidence 3) [E9647399] (AR v2)
Copy OK

All tracks accurately ripped

No errors occurred

End of status report

==== Log checksum 1A02A7413315D65B87E25716B731797B13E51B4ACD2876E413BA57F299D873BC ====

All thanks go to the Musicgate

More Music in My Blog
Follow My RSS Channel