Subcategories

Arturas Bumsteinas - Heap Of Language (2013)

Posted By: d'Avignon
Arturas Bumsteinas - Heap Of Language (2013)

Arturas Bumsteinas - Heap Of Language (2013)
Classical/Avant-garde/21st Century | FLAC lossless | cuesheets+log | covers+booklet | 1h14m | 394mb
Label: Bolt Records | cat.no. DUX 0773


Easily one of the weirdest records I’ve ordered for in a long time. I’m at a loss how to describe the music, which, in various catalogs, is defined as musique concrete. Is it worth exploring? Most certainly it is, but it needs getting accustomed to.
So, this is what we can expect from young composers these days. Lithuanian Arturas Bumsteinas was born in 1982…

Tracks:

01. Heap Of Language [0:10:12.68]
02. Nasdaq [0:09:22.36]
03. Malcowa [0:07:30.85]
04. Ikea Organ [0:08:35.01]
05. Verbatim [0:16:17.90]
06. Antiradical Opera [0:22:05.12]

Performers:

1 Heap Of Language (CD Version) - 10:10

Cello, Voice – Anton Lukoszevieze
Ensemble – Chordos String Quartet

2 Nasdaq - 9:18

Accordion – Daniel Rozov
Electronics – Arturas Bumšteinas*
Ensemble – Chordos String Quartet
Percussion – Saulius Astrauskas
Vocals [Beatbox], Electronics [Loopstation] – Patryk "Tik Tak" Matela
Voice [Voices] – Geba Ensemble
Voice, Harmonium – Mieczyslaw Litwinski

3 Malcowa - 7:29

Accordion – Daniel Rozov
Electronics – Arturas Bumšteinas*
Ensemble – Chordos String Quartet
Percussion – Saulius Astrauskas
Voice [Solo Voice] – Agata Harz
Voice [Voices], Keyboards [Electronic Keyboards] – Geba Ensemble

4 Ikea Organ - 8:31

Accordion – Eva Zöllner
Alto Saxophone – Ilia Belorukov
Percussion, Synthesizer, Piano [Inside] – Arturas Bumšteinas*
Voice – Girilal Baars

5 Verbatim - 16:11

Human Beatbox – Patryk "Tik Tak" Matela
Orchestra – Lithuanian National Symphony Orchestra
Soprano Vocals – Natalia Kawalek


6 Antiradical Opera - 22:05

Clarinet – Šarunas Jankauskas
Flute – Vaida Pasareviciute
Guitar – Alexei Bliznin
Piano – Arturas Bumšteinas*
Sampler [Electronic Sample] – Paco Balbuena
Trumpet – Roman Repin
Violin – Tadas Žukauskas
Voice – Ceyda Karamursel, Charles Krutzen, Gosia Kus, Gryte Pintukaite, John Troyer, Jonas Sakalauskas, Juha Valkeapää, Kyrre Bjørkås, La La Band Of The National Theatre School Of Canada, Tom Winter

Exact Audio Copy V1.0 beta 3 from 29. August 2011

EAC extraction logfile from 26. January 2013, 22:06

Arturas Bumsteinas / Heap Of Language

Used drive : TSSTcorpCDDVDW SH-216AB Adapter: 1 ID: 0

Read mode : Secure
Utilize accurate stream : Yes
Defeat audio cache : Yes
Make use of C2 pointers : No

Read offset correction : 6
Overread into Lead-In and Lead-Out : No
Fill up missing offset samples with silence : Yes
Delete leading and trailing silent blocks : No
Null samples used in CRC calculations : Yes
Used interface : Native Win32 interface for Win NT & 2000
Gap handling : Appended to previous track

Used output format : User Defined Encoder
Selected bitrate : 768 kBit/s
Quality : High
Add ID3 tag : No
Command line compressor : C:\Program Files (x86)\Exact Audio Copy\FLAC\FLAC.EXE
Additional command line options : -6 -V -T "ARTIST=%artist%" -T "TITLE=%title%" -T "ALBUM=%albumtitle%" -T "DATE=%year%" -T "TRACKNUMBER=%tracknr%" -T "GENRE=%genre%" -T "COMMENT=%comment%" -T "BAND=%albuminterpret%" -T "ALBUMARTIST=%albuminterpret%" -T "COMPOSER=%composer%" %haslyrics%–tag-from-file=LYRICS="%lyricsfile%"%haslyrics% -T "DISCNUMBER=%cdnumber%" -T "TOTALDISCS=%totalcds%" -T "TOTALTRACKS=%numtracks%" %hascover%–picture="%coverfile%"%hascover% %source% -o %dest%


TOC of the extracted CD

Track | Start | Length | Start sector | End sector
––––––––––––––––––––––––––––-
1 | 0:00.00 | 10:12.51 | 0 | 45950
2 | 10:12.51 | 9:22.27 | 45951 | 88127
3 | 19:35.03 | 7:30.64 | 88128 | 121941
4 | 27:05.67 | 8:35.01 | 121942 | 160567
5 | 35:40.68 | 16:17.68 | 160568 | 233910
6 | 51:58.61 | 22:05.09 | 233911 | 333294


Track 1

Filename C:\Users\astarte\03. POST\Bumsteinas, Arturas - Heap of Language\01. Heap Of Language.wav

Pre-gap length 0:00:02.00

Peak level 93.0 %
Extraction speed 5.4 X
Track quality 100.0 %
Copy CRC A1B65C0C
Track not present in AccurateRip database
Copy OK

Track 2

Filename C:\Users\astarte\03. POST\Bumsteinas, Arturas - Heap of Language\02. Nasdaq.wav

Pre-gap length 0:00:01.60

Peak level 94.6 %
Extraction speed 6.4 X
Track quality 100.0 %
Copy CRC 9C90217B
Track not present in AccurateRip database
Copy OK

Track 3

Filename C:\Users\astarte\03. POST\Bumsteinas, Arturas - Heap of Language\03. Malcowa.wav

Pre-gap length 0:00:02.10

Peak level 89.4 %
Extraction speed 6.3 X
Track quality 99.9 %
Copy CRC FBBF4687
Track not present in AccurateRip database
Copy OK

Track 4

Filename C:\Users\astarte\03. POST\Bumsteinas, Arturas - Heap of Language\04. Ikea Organ.wav

Pre-gap length 0:00:00.17

Peak level 94.3 %
Extraction speed 7.7 X
Track quality 100.0 %
Copy CRC 84447F68
Track not present in AccurateRip database
Copy OK

Track 5

Filename C:\Users\astarte\03. POST\Bumsteinas, Arturas - Heap of Language\05. Verbatim.wav

Pre-gap length 0:00:01.37

Peak level 92.2 %
Extraction speed 8.9 X
Track quality 100.0 %
Copy CRC C3A40887
Track not present in AccurateRip database
Copy OK

Track 6

Filename C:\Users\astarte\03. POST\Bumsteinas, Arturas - Heap of Language\06. Antiradical Opera.wav

Pre-gap length 0:00:01.44

Peak level 90.0 %
Extraction speed 10.2 X
Track quality 100.0 %
Copy CRC 04FA73B1
Track not present in AccurateRip database
Copy OK


None of the tracks are present in the AccurateRip database

No errors occurred

End of status report

==== Log checksum 5A81DF9A7569519EE1C0648519CA99115C8C0B15AB7E2735CE5B28F73713EE5D ====