Subcategories

Arvo Pärt - The Silence of Being (2008) (6CD Box Set)

Posted By: shamanicus
Arvo Pärt - The Silence of Being (2008) (6CD Box Set)

Arvo Pärt - The Silence of Being (2008)
EAC Rip | FLAC (tracks+.cue, log) | Artwork (png, 420dpi) | 1.86 Gb | MP3 CBR 320kbps | RAR | 1.13 Gb
Classical, Choral, Sacred, Chamber Music | Label: Naxos - 8.506015

Five of the discs on this six-CD set are previously released Naxos recordings of a broad variety of works by Estonian composer Arvo Pärt. The set offers a generous sampling of works spanning the composer's career, from his polystylistic Collage über BACH (1964) for orchestra to his 2001 Nunc dimittis for a cappella chorus.

The bulk of the collection is devoted to works with his characteristic holy minimalist sound, using his tintinnabuli technique, in which there is a mathematically exact connection between the various lines. The set includes several of his major large-scale works, such as the St. John Passion, Berliner Messe, and Tabula Rasa, as well as many of his most popular smaller works, like Fratres (in six different arrangements), Cantus in memorium Benjamin Britten, Festina lente, De Profundis, and vocal and instrumental versions of Summa. The avowed Pärt devotee will probably already own performances of most of these pieces, but at the bargain price at which Naxos is offering the set, it offers listeners who aren't widely familiar with Pärt's music a fine introduction to his work. The quality of the performances varies; none are less than very good, but few measure up to the luminous original recordings on ECM, performed by groups such as the Berlin Philharmonic, Hilliard Ensemble, Gidon Kremer, the Theatre of Voices, and the Estonian Philharmonic Chamber Choir. The performances by the Hungarian State Opera Orchestra on the disc devoted to the six versions of Fratres, Festina lente, Summa, and Cantus are somewhat diffident, but Tonus Peregrinus, led by Antony Pitts, sings the St. John Passion with purity, intensity, and drama. The disc of more recent unaccompanied choral music dating from 1990 to 2001 includes lesser known but highly attractive works, beautifully performed by Elora Festival Singers conducted by Noel Edison. Naxos astutely includes a bonus disc, Sonic Rebellion, a sampler of newer classical music likely to appeal to the kind of listener drawn to mavericks like Pärt. The eclectic collection is wonderfully diverse, including composers as different as Glass, Nancarrow, Henze, Riley, Wuorinen, Ligeti, Scelsi, and Adams, and should whet the appetite of fans of new music to look into the Naxos catalog.
Stephen Eddins





Tracklist:


Fratres • Festina Lente • Summa • Cantus In Memory Of Benjamin Britten

Arvo Pärt - The Silence of Being (2008) (6CD Box Set)


1. Fratres For Strings And Percussion (08:54)
2. Fratres For Violin, Strings And Percussion (10:42) violin – Béla Nagy
3. Festina Lente (07:47) harp – Márta Haraszti
4. Fratres For String Quartet (08:38) cello – Judit Kis Domonkos, viola – Rezső Hajna, violin – Béla Nagy, Katalin Schneider
5. Fratres For Cello And Piano (11:49) cello – Tibor Párkányi, piano – Sándor Falvai
6. Summa (03:43) cello – Tibor Párkányi
7. Fratres For Eight Cellos (11:48) cello – Béla Melis, Eszter Kendi, Judit Faludi, Katalin Aldobólyi Nagy, Péter Arató, Wambach Tibor, Ágnes Fodor
8. Fratres For Wind Octet And Percussion (07:41)
-arranged by – Beat Brinner
-bassoon – István Hartenstein, László Hunyadi
-clarinet – Géza Bánhegyi
-clarinet, bass clarinet – Kiss Gy László
-horns – Antal Szuromi, Károly Ambrus
-oboe – Béla Horváth
-oboe, english horn – József Erős
9. Cantus In Memory Of Benjamin Britten (07:39)

conducted by Tamás Benedek
Hungarian State Opera Orchestra (tracks: 1 to 3, 6, 9)
percussion instruments – Antal Eisrich (tracks: 1, 2, 8, 9), Miklós Kovács (tracks: 1, 2, 8)

Total length: 01:18:41

More information: discogs

Orchestral Works: Tabula Rasa • Collage Über BACH • Symphony No. 3

Arvo Pärt - The Silence of Being (2008) (6CD Box Set)


1. Tabula Rasa - Ludus (09:48)
2. Tabula Rasa - Silentium (14:34)
3. Collage über BACH - Toccata (02:42)
4. Collage über BACH - Sarabande (03:10)
5. Collage über BACH - Ricercare (01:41)
6. Symphony No. 3 - First Movement (06:26)
7. Symphony No. 3 - Second Movement (06:13)
8. Symphony No. 3 - Third Movement (07:44)

Ulster Orchestra, Leslie Hatfield, Rebecca Hirsch, cunducted by Takuo Yuasa

Total length: 52:18

More information: discogs


Passio

Arvo Pärt - The Silence of Being (2008) (6CD Box Set)


Passio Domini Nostri Jesu Christi Secundum Joannem
1. Jesus Is Betrayed And Arrested In Gethsemane (09:37)
2. Jesus Is Interrogated By The High Priest And Denied By Peter (11:27)
3. Jesus Is Judged By Pilate And Reviled By The People (26:17)
4. Jesus Is Crucified At Golgotha (14:27)

Tonus Peregrinus, conducted by Antony Pitts

Total length: 01:01:48

More information: discogs


Berliner Messe • Magnificat • Summa

Arvo Pärt - The Silence of Being (2008) (6CD Box Set)


1. Cantate Domino Canticum Novum (Psalm 95) (1977, Rev. 1996) (03:27)
2. Berliner Messe (for choir and string orchestra) (Rev. V/1992) - Kyrie (02:46)
3. Berliner Messe (for choir and string orchestra) (Rev. V/1992) - Gloria (03:57)
4. Berliner Messe (for choir and string orchestra) (Rev. V/1992) - Alleluia Verses I & II (02:00)
5. Berliner Messe (for choir and string orchestra) (Rev. V/1992) - Veni Sancte Spiritus (05:06)
6. Berliner Messe (for choir and string orchestra) (Rev. V/1992) - Credo (04:15)
7. Berliner Messe (for choir and string orchestra) (Rev. V/1992) - Sanctus (02:51)
8. Berliner Messe (for choir and string orchestra) (Rev. V/1992) - Agnus Dei (02:01)
9. De Profundis (1980) (05:56)
10. Summa (1977) (04:40)
11. The Beatitudes (1990, Rev. 1991) (07:51)
12. Magnificat (1989) (07:22)

Total length: 52:12

Elora Festival Orchestra, Elora Festival Singers, Jurgen Petrenko, conducted by Noel Edison

More information: discogs


Music for Unaccompanied Choir: Triodion • Ode VII (Memento) • I Am The True Vine • Dopo La Vittoria

Arvo Pärt - The Silence of Being (2008) (6CD Box Set)


1. Triodion (1998) - Introduction: Ad Libitum - Ode I: 'O Jesus The Son Of God, Have Mercy Upon Us' (04:20)
2. Triodion (1998) - Ode II: 'O Most Holy Birth-Giver Of God, Save Us' (04:10)
3. Triodion (1998) - Ode III: 'O Holy Saint Nicholas, Pray To God For Us' Coda: Ad Libitum (05:07)
4. Tribute To Caesar (1997) (05:33)
5. Nunc Dimittis (2001) (06:16)
6. Ode VII (Memento) From Kanon Pokajanen (1994) (07:37)
7. I Am The True Vine (1996) (06:50)
8. The Woman With The Alabaster Box (1997) (05:26)
9. Dopo La Vittoria (After The Victory) (1996/1998) (10:39)
10. Bogoróditse Djévo (Mother Of God And Virgin) (1990) (01:28)

Elora Festival Singers, conducted by Noel Edison

Total length: 57:26

More information: discogs


Sonic Rebellion: Alternative Classical Collection

Arvo Pärt - The Silence of Being (2008) (6CD Box Set)


1. Philip Glass – Symphony No. 4, "Heroes": Neuköln (06:49) [Bournemouth Symphony Orchestra under Marin Alsop]
2. Krzysztof Penderecki – Threnody For The Victims Of Hiroshima (08:59) [National Polish Radio Symphony Orchestra under Antoni Wit]
3. Conlon Nancarrow – Toccata For Violin Player & Piano (01:38) [Continuum, director: Cheryl Seltzer, Joel Sachs]
4. John Cage – First Interlude (03:29) [Boris Berman]
5. Hans Werner Henze – Fünf Nachtstücke (1990) For Violin And Piano: 1. Elegie (03:05) [Aaron Shorr, Peter Sheppard]
6. Giacinto Scelsi – Quattro Pezzi Per Orchestra (I) (02:30) [Rundfunk-Sinfonieorchester Saarbrücken under Hans Zender]
7. Terry Riley – In C (05:17) [ARS NOVA Copenhagen, Percurama Percussion Ensemble under Paul Hiller]
8. Charles Wuorinen – Second String Quartet (05:03) [The Group For Contemporary Music]
9. Edgard Varèse – Déserts - Third Electronic Interpolation (Beginning) (04:11) [National Polish Radio Symphony Orchestra]
10. George Crumb – Songs, Drones & Refrains Of Death (1962-1968), Death-Drone II (01:48) [Ensemble New Art, Nicholas Isherwood under Fuat Kent]
11. Gyorgy Ligeti – Six Bagatelles For Wind Quintet (1953) Allegro Grazioso (02:42) [Albert Schweitzer Quintett]
12. Sofia Gubaidulina – Silenzio II (02:29) [Elsbeth Moser, Maria Kliegel, Kathrin Rabus]
13. Jørgen Plaetner – Beta (05:39)
14. John Adams – Shaker Loops - A Final Shaking (04:09) [Bournemouth Symphony Orchestra, Nathan Gunn under Marin Alsop]
15. Einojuhani Rautavaara – Piano Concerto 1 (09:46) [Royal Scottish National Orchestra, Laura Mikkola under Hannu Lintu]
16. Arvo Pärt – Fratres For Strings & Percussion (08:54) [Hungarian State Opera Orchestra under Tamás Benedek]

Total length: 01:16:28

More information: discogs

Exact Audio Copy V1.0 beta 1 from 15. November 2010

EAC extraction logfile from 3. May 2011, 9:21

Arvo Pärt / Berliner Messe

Used drive : TDK CDRW8432 Adapter: 2 ID: 0

Read mode : Secure
Utilize accurate stream : Yes
Defeat audio cache : Yes
Make use of C2 pointers : No

Read offset correction : 355
Overread into Lead-In and Lead-Out : Yes
Fill up missing offset samples with silence : Yes
Delete leading and trailing silent blocks : No
Null samples used in CRC calculations : Yes
Used interface : Native Win32 interface for Win NT & 2000
Gap handling : Appended to previous track

Used output format : User Defined Encoder
Selected bitrate : 896 kBit/s
Quality : High
Add ID3 tag : No
Command line compressor : C:\Program Files (x86)\Exact Audio Copy\FLAC\FLAC.EXE
Additional command line options : -5 -V -T "ARTIST=%a" -T "TITLE=%t" -T "ALBUM=%g" -T "DATE=%y" -T "TRACKNUMBER=%n" -T "GENRE=%m" -T "COMMENT=%e" %s -o %d


TOC of the extracted CD

Track | Start | Length | Start sector | End sector
––––––––––––––––––––––––––––-
1 | 0:00.00 | 3:27.72 | 0 | 15596
2 | 3:27.72 | 2:42.58 | 15597 | 27804
3 | 6:10.55 | 3:58.55 | 27805 | 45709
4 | 10:09.35 | 1:58.37 | 45710 | 54596
5 | 12:07.72 | 5:07.30 | 54597 | 77651
6 | 17:15.27 | 4:13.73 | 77652 | 96699
7 | 21:29.25 | 2:50.42 | 96700 | 109491
8 | 24:19.67 | 2:08.13 | 109492 | 119104
9 | 26:28.05 | 5:53.37 | 119105 | 145616
10 | 32:21.42 | 4:39.48 | 145617 | 166589
11 | 37:01.15 | 7:52.30 | 166590 | 202019
12 | 44:53.45 | 7:16.30 | 202020 | 234749


Track 1

Filename C:\0IN\Arvo Pärt - The Silence of Being\Arvo Pärt - Berliner Messe\01 Cantate Domino Canticum Novum (Psalm 95) (1977, rev. 1996).wav

Pre-gap length 0:00:02.00

Peak level 58.3 %
Extraction speed 1.5 X
Track quality 100.0 %
Test CRC 383F39AC
Copy CRC 383F39AC
Accurately ripped (confidence 4) [6BD7B0AF]
Copy OK

Track 2

Filename C:\0IN\Arvo Pärt - The Silence of Being\Arvo Pärt - Berliner Messe\02 Berliner Messe (rev. V,1992) - Kyrie.wav

Pre-gap length 0:00:03.17

Peak level 44.3 %
Extraction speed 1.5 X
Track quality 100.0 %
Test CRC A011F01F
Copy CRC A011F01F
Accurately ripped (confidence 4) [CFA9C839]
Copy OK

Track 3

Filename C:\0IN\Arvo Pärt - The Silence of Being\Arvo Pärt - Berliner Messe\03 Berliner Messe - Gloria.wav

Peak level 56.5 %
Extraction speed 1.2 X
Track quality 99.9 %
Test CRC 88CD5125
Copy CRC 88CD5125
Accurately ripped (confidence 4) [2DEFDF82]
Copy OK

Track 4

Filename C:\0IN\Arvo Pärt - The Silence of Being\Arvo Pärt - Berliner Messe\04 Berliner Messe - Allaluia Verses I & II.wav

Pre-gap length 0:00:01.55

Peak level 57.6 %
Extraction speed 1.6 X
Track quality 100.0 %
Test CRC 41DF2D32
Copy CRC 41DF2D32
Accurately ripped (confidence 4) [FC9A445D]
Copy OK

Track 5

Filename C:\0IN\Arvo Pärt - The Silence of Being\Arvo Pärt - Berliner Messe\05 Berliner Messe - Veni Sancti Spiritus.wav

Peak level 23.1 %
Extraction speed 2.0 X
Track quality 100.0 %
Test CRC CF3CF817
Copy CRC CF3CF817
Accurately ripped (confidence 4) [04183810]
Copy OK

Track 6

Filename C:\0IN\Arvo Pärt - The Silence of Being\Arvo Pärt - Berliner Messe\06 Berliner Messe - Credo.wav

Pre-gap length 0:00:01.35

Peak level 50.2 %
Extraction speed 2.2 X
Track quality 100.0 %
Test CRC 66C5E9F2
Copy CRC 66C5E9F2
Accurately ripped (confidence 4) [FD2620CE]
Copy OK

Track 7

Filename C:\0IN\Arvo Pärt - The Silence of Being\Arvo Pärt - Berliner Messe\07 Berliner Messe - Sanctus.wav

Peak level 17.7 %
Extraction speed 2.1 X
Track quality 100.0 %
Test CRC E3FC965C
Copy CRC E3FC965C
Accurately ripped (confidence 4) [26E1E49D]
Copy OK

Track 8

Filename C:\0IN\Arvo Pärt - The Silence of Being\Arvo Pärt - Berliner Messe\08 Berliner Messe - Agnus Dei.wav

Peak level 12.4 %
Extraction speed 1.0 X
Track quality 99.9 %
Test CRC 17AB7DBA
Copy CRC 17AB7DBA
Accurately ripped (confidence 4) [EE3B1535]
Copy OK

Track 9

Filename C:\0IN\Arvo Pärt - The Silence of Being\Arvo Pärt - Berliner Messe\09 De Profundis (1980).wav

Pre-gap length 0:00:07.03

Peak level 37.0 %
Extraction speed 2.6 X
Track quality 100.0 %
Test CRC BCF16AC6
Copy CRC BCF16AC6
Accurately ripped (confidence 4) [3DAA3F93]
Copy OK

Track 10

Filename C:\0IN\Arvo Pärt - The Silence of Being\Arvo Pärt - Berliner Messe\10 Summa (1977).wav

Pre-gap length 0:00:04.57

Peak level 64.5 %
Extraction speed 2.5 X
Track quality 100.0 %
Test CRC E3A0C6A9
Copy CRC E3A0C6A9
Accurately ripped (confidence 4) [C49933EB]
Copy OK

Track 11

Filename C:\0IN\Arvo Pärt - The Silence of Being\Arvo Pärt - Berliner Messe\11 The Beatitudes (1990, rev. 1991).wav

Pre-gap length 0:00:04.50

Peak level 97.9 %
Extraction speed 2.9 X
Track quality 100.0 %
Test CRC 53ACFB21
Copy CRC 53ACFB21
Accurately ripped (confidence 4) [8D190864]
Copy OK

Track 12

Filename C:\0IN\Arvo Pärt - The Silence of Being\Arvo Pärt - Berliner Messe\12 Magnificat (1989).wav

Pre-gap length 0:00:05.70

Peak level 76.9 %
Extraction speed 3.1 X
Track quality 100.0 %
Test CRC B3784A3B
Copy CRC B3784A3B
Accurately ripped (confidence 4) [EA21EC85]
Copy OK


All tracks accurately ripped

No errors occurred

End of status report

==== Log checksum A96EB72650E46F3C7AE9699F8738053B7BE11FC1505CA3DBDB7D155E5713A0EE ====

Exact Audio Copy V1.0 beta 1 from 15. November 2010

EAC extraction logfile from 3. May 2011, 11:28

Arvo Pärt / Fratres

Used drive : TDK CDRW8432 Adapter: 2 ID: 0

Read mode : Secure
Utilize accurate stream : Yes
Defeat audio cache : Yes
Make use of C2 pointers : No

Read offset correction : 355
Overread into Lead-In and Lead-Out : Yes
Fill up missing offset samples with silence : Yes
Delete leading and trailing silent blocks : No
Null samples used in CRC calculations : Yes
Used interface : Native Win32 interface for Win NT & 2000
Gap handling : Appended to previous track

Used output format : User Defined Encoder
Selected bitrate : 896 kBit/s
Quality : High
Add ID3 tag : No
Command line compressor : C:\Program Files (x86)\Exact Audio Copy\FLAC\FLAC.EXE
Additional command line options : -5 -V -T "ARTIST=%a" -T "TITLE=%t" -T "ALBUM=%g" -T "DATE=%y" -T "TRACKNUMBER=%n" -T "GENRE=%m" -T "COMMENT=%e" %s -o %d


TOC of the extracted CD

Track | Start | Length | Start sector | End sector
––––––––––––––––––––––––––––-
1 | 0:00.00 | 8:54.05 | 0 | 40054
2 | 8:54.05 | 10:44.30 | 40055 | 88384
3 | 19:38.35 | 7:50.17 | 88385 | 123651
4 | 27:28.52 | 8:41.28 | 123652 | 162754
5 | 36:10.05 | 11:52.60 | 162755 | 216214
6 | 48:02.65 | 3:45.30 | 216215 | 233119
7 | 51:48.20 | 11:50.67 | 233120 | 286436
8 | 63:39.12 | 7:45.25 | 286437 | 321336
9 | 71:24.37 | 7:39.35 | 321337 | 355796


Track 1

Filename C:\0IN\Arvo Pärt - The Silence of Being\Arvo Pärt - Fratres\01 Fratres for strings and percussion.wav

Pre-gap length 0:00:02.00

Peak level 89.8 %
Extraction speed 1.8 X
Track quality 100.0 %
Test CRC E46751FE
Copy CRC E46751FE
Accurately ripped (confidence 2) [873B27C4]
Copy OK

Track 2

Filename C:\0IN\Arvo Pärt - The Silence of Being\Arvo Pärt - Fratres\02 Fratres for violin, strings and percussion.wav

Peak level 92.9 %
Extraction speed 2.2 X
Track quality 100.0 %
Test CRC DCF009B1
Copy CRC DCF009B1
Accurately ripped (confidence 2) [0C079539]
Copy OK

Track 3

Filename C:\0IN\Arvo Pärt - The Silence of Being\Arvo Pärt - Fratres\03 Festina lente for strings and harp ad lib..wav

Pre-gap length 0:00:02.35

Peak level 81.1 %
Extraction speed 2.4 X
Track quality 100.0 %
Test CRC 1C79AFA7
Copy CRC 1C79AFA7
Accurately ripped (confidence 2) [ABC05ABE]
Copy OK

Track 4

Filename C:\0IN\Arvo Pärt - The Silence of Being\Arvo Pärt - Fratres\04 Fratres for string quartet.wav

Pre-gap length 0:00:02.52

Peak level 81.3 %
Extraction speed 2.6 X
Track quality 100.0 %
Test CRC E485169C
Copy CRC E485169C
Accurately ripped (confidence 2) [B5DCFB89]
Copy OK

Track 5

Filename C:\0IN\Arvo Pärt - The Silence of Being\Arvo Pärt - Fratres\05 Fratres for cello and piano.wav

Pre-gap length 0:00:03.46

Peak level 41.3 %
Extraction speed 3.1 X
Track quality 100.0 %
Test CRC 19A1233F
Copy CRC 19A1233F
Accurately ripped (confidence 2) [4EE77BDC]
Copy OK

Track 6

Filename C:\0IN\Arvo Pärt - The Silence of Being\Arvo Pärt - Fratres\06 Summa for strings.wav

Pre-gap length 0:00:03.73

Peak level 54.3 %
Extraction speed 2.8 X
Track quality 100.0 %
Test CRC C1489D65
Copy CRC C1489D65
Accurately ripped (confidence 2) [72281004]
Copy OK

Track 7

Filename C:\0IN\Arvo Pärt - The Silence of Being\Arvo Pärt - Fratres\07 Fratres for eight cellos.wav

Pre-gap length 0:00:02.48

Peak level 35.6 %
Extraction speed 3.4 X
Track quality 100.0 %
Test CRC 57BC46F0
Copy CRC 57BC46F0
Accurately ripped (confidence 2) [D1C0860B]
Copy OK

Track 8

Filename C:\0IN\Arvo Pärt - The Silence of Being\Arvo Pärt - Fratres\08 Fratres for wind octet and percussion.wav

Pre-gap length 0:00:02.50

Peak level 25.3 %
Extraction speed 3.3 X
Track quality 100.0 %
Test CRC B3D9111A
Copy CRC B3D9111A
Accurately ripped (confidence 2) [8692AF9E]
Copy OK

Track 9

Filename C:\0IN\Arvo Pärt - The Silence of Being\Arvo Pärt - Fratres\09 Cantus in memory of Benjamin Britten for strings and bell.wav

Pre-gap length 0:00:03.70

Peak level 93.5 %
Extraction speed 1.3 X
Track quality 99.9 %
Test CRC 1B56A71B
Copy CRC 1B56A71B
Accurately ripped (confidence 2) [D5192D0A]
Copy OK


All tracks accurately ripped

No errors occurred

End of status report

==== Log checksum C2130793B2D06EBE7C2EB457441DC00D0CED0D67C915221C9CB1AAED8F026BA1 ====

Exact Audio Copy V1.0 beta 1 from 15. November 2010

EAC extraction logfile from 3. May 2011, 2:08

Arvo Pärt / Music for Unaccompanied Choir

Used drive : TDK CDRW8432 Adapter: 2 ID: 0

Read mode : Secure
Utilize accurate stream : Yes
Defeat audio cache : Yes
Make use of C2 pointers : No

Read offset correction : 355
Overread into Lead-In and Lead-Out : Yes
Fill up missing offset samples with silence : Yes
Delete leading and trailing silent blocks : No
Null samples used in CRC calculations : Yes
Used interface : Native Win32 interface for Win NT & 2000
Gap handling : Appended to previous track

Used output format : User Defined Encoder
Selected bitrate : 896 kBit/s
Quality : High
Add ID3 tag : No
Command line compressor : C:\Program Files (x86)\Exact Audio Copy\FLAC\FLAC.EXE
Additional command line options : -5 -V -T "ARTIST=%a" -T "TITLE=%t" -T "ALBUM=%g" -T "DATE=%y" -T "TRACKNUMBER=%n" -T "GENRE=%m" -T "COMMENT=%e" %s -o %d


TOC of the extracted CD

Track | Start | Length | Start sector | End sector
––––––––––––––––––––––––––––-
1 | 0:00.00 | 4:20.16 | 0 | 19515
2 | 4:20.16 | 4:10.09 | 19516 | 38274
3 | 8:30.25 | 5:10.66 | 38275 | 61590
4 | 13:41.16 | 5:34.64 | 61591 | 86704
5 | 19:16.05 | 6:12.62 | 86705 | 114666
6 | 25:28.67 | 7:37.38 | 114667 | 148979
7 | 33:06.30 | 6:50.16 | 148980 | 179745
8 | 39:56.46 | 5:28.56 | 179746 | 204401
9 | 45:25.27 | 10:34.71 | 204402 | 252022
10 | 56:00.23 | 1:23.52 | 252023 | 258299


Track 1

Filename C:\0IN\Arvo Pärt - The Silence of Being\Arvo Pärt - Music for Unaccompanied Choir\01 Triodion - Introduction; ad libitum - Ode I; 'O Jesus the Son of God, Have Mercy upon Us'.wav

Pre-gap length 0:00:02.00

Peak level 68.2 %
Extraction speed 1.5 X
Track quality 100.0 %
Test CRC AB59F9CB
Copy CRC AB59F9CB
Accurately ripped (confidence 11) [ACAD2F99]
Copy OK

Track 2

Filename C:\0IN\Arvo Pärt - The Silence of Being\Arvo Pärt - Music for Unaccompanied Choir\02 Triodion - Ode II; 'O Most Holy Birth-Giver of God, Save Us'.wav

Pre-gap length 0:00:02.29

Peak level 38.5 %
Extraction speed 1.7 X
Track quality 100.0 %
Test CRC 8DDB6816
Copy CRC 8DDB6816
Accurately ripped (confidence 11) [60A5FCFD]
Copy OK

Track 3

Filename C:\0IN\Arvo Pärt - The Silence of Being\Arvo Pärt - Music for Unaccompanied Choir\03 Triodion - Ode III; 'O Holy Saint Nicholas, Pray to God for Us', Coda; ad libitum.wav

Pre-gap length 0:00:02.65

Peak level 54.2 %
Extraction speed 1.8 X
Track quality 100.0 %
Test CRC 4941A98B
Copy CRC 4941A98B
Accurately ripped (confidence 11) [41158977]
Copy OK

Track 4

Filename C:\0IN\Arvo Pärt - The Silence of Being\Arvo Pärt - Music for Unaccompanied Choir\04 Tribute to Caesar.wav

Pre-gap length 0:00:07.08

Peak level 74.7 %
Extraction speed 2.1 X
Track quality 100.0 %
Test CRC FDEBC135
Copy CRC FDEBC135
Accurately ripped (confidence 10) [17AA438F]
Copy OK

Track 5

Filename C:\0IN\Arvo Pärt - The Silence of Being\Arvo Pärt - Music for Unaccompanied Choir\05 Nunc dimittis.wav

Pre-gap length 0:00:09.20

Peak level 70.4 %
Extraction speed 2.4 X
Track quality 100.0 %
Test CRC 9F087969
Copy CRC 9F087969
Accurately ripped (confidence 11) [8FFED3D8]
Copy OK

Track 6

Filename C:\0IN\Arvo Pärt - The Silence of Being\Arvo Pärt - Music for Unaccompanied Choir\06 Ode VII (Memento) from 'Kanon Pokajanen'.wav

Pre-gap length 0:00:05.54

Peak level 63.6 %
Extraction speed 2.6 X
Track quality 100.0 %
Test CRC 5AAE433B
Copy CRC 5AAE433B
Accurately ripped (confidence 11) [F7C0988F]
Copy OK

Track 7

Filename C:\0IN\Arvo Pärt - The Silence of Being\Arvo Pärt - Music for Unaccompanied Choir\07 I Am the True Vine.wav

Pre-gap length 0:00:06.23

Peak level 27.5 %
Extraction speed 2.7 X
Track quality 100.0 %
Test CRC F82C2338
Copy CRC F82C2338
Accurately ripped (confidence 11) [055988CB]
Copy OK

Track 8

Filename C:\0IN\Arvo Pärt - The Silence of Being\Arvo Pärt - Music for Unaccompanied Choir\08 The Woman with the Alabaster Box.wav

Pre-gap length 0:00:06.09

Peak level 34.4 %
Extraction speed 1.6 X
Track quality 99.9 %
Test CRC A99DAC61
Copy CRC A99DAC61
Accurately ripped (confidence 11) [17032C81]
Copy OK

Track 9

Filename C:\0IN\Arvo Pärt - The Silence of Being\Arvo Pärt - Music for Unaccompanied Choir\09 Dopo la vittoria (After the Victory).wav

Pre-gap length 0:00:08.67

Peak level 91.3 %
Extraction speed 3.2 X
Track quality 100.0 %
Test CRC E688F537
Copy CRC E688F537
Accurately ripped (confidence 11) [B25F1817]
Copy OK

Track 10

Filename C:\0IN\Arvo Pärt - The Silence of Being\Arvo Pärt - Music for Unaccompanied Choir\10 Bogoróditse Djévo (Mother of God and Virgin).wav

Pre-gap length 0:00:04.39

Peak level 71.2 %
Extraction speed 0.8 X
Track quality 99.8 %
Test CRC 3FDFBB4E
Copy CRC 3FDFBB4E
Accurately ripped (confidence 11) [347197A9]
Copy OK


All tracks accurately ripped

No errors occurred

End of status report

==== Log checksum F64BBA5AA7AA0D70B66A97C17E81C16C2254FD81D13DEA9099F33868CFEB0FFD ====

Exact Audio Copy V1.0 beta 1 from 15. November 2010

EAC extraction logfile from 3. May 2011, 10:19

Arvo Pärt / Orchestral Works

Used drive : TDK CDRW8432 Adapter: 2 ID: 0

Read mode : Secure
Utilize accurate stream : Yes
Defeat audio cache : Yes
Make use of C2 pointers : No

Read offset correction : 355
Overread into Lead-In and Lead-Out : Yes
Fill up missing offset samples with silence : Yes
Delete leading and trailing silent blocks : No
Null samples used in CRC calculations : Yes
Used interface : Native Win32 interface for Win NT & 2000
Gap handling : Appended to previous track

Used output format : User Defined Encoder
Selected bitrate : 896 kBit/s
Quality : High
Add ID3 tag : No
Command line compressor : C:\Program Files (x86)\Exact Audio Copy\FLAC\FLAC.EXE
Additional command line options : -5 -V -T "ARTIST=%a" -T "TITLE=%t" -T "ALBUM=%g" -T "DATE=%y" -T "TRACKNUMBER=%n" -T "GENRE=%m" -T "COMMENT=%e" %s -o %d


TOC of the extracted CD

Track | Start | Length | Start sector | End sector
––––––––––––––––––––––––––––-
1 | 0:00.00 | 9:50.50 | 0 | 44299
2 | 9:50.50 | 14:41.42 | 44300 | 110416
3 | 24:32.17 | 2:47.10 | 110417 | 122951
4 | 27:19.27 | 3:07.65 | 122952 | 137041
5 | 30:27.17 | 1:44.15 | 137042 | 144856
6 | 32:11.32 | 6:29.18 | 144857 | 174049
7 | 38:40.50 | 6:09.32 | 174050 | 201756
8 | 44:50.07 | 7:43.45 | 201757 | 236526


Track 1

Filename C:\0IN\Arvo Pärt - The Silence of Being\Arvo Pärt - Orchestral Works\01 Tabula Rasa - I. Ludus.wav

Pre-gap length 0:00:02.00

Peak level 81.2 %
Extraction speed 1.9 X
Track quality 100.0 %
Test CRC 8E6EB5F1
Copy CRC 8E6EB5F1
Cannot be verified as accurate (confidence 14) [043818D9], AccurateRip returned [9CD979B1]
Copy OK

Track 2

Filename C:\0IN\Arvo Pärt - The Silence of Being\Arvo Pärt - Orchestral Works\02 Tabula Rasa - II. Silentium.wav

Pre-gap length 0:00:02.33

Peak level 17.5 %
Extraction speed 2.4 X
Track quality 100.0 %
Test CRC AB768520
Copy CRC AB768520
Cannot be verified as accurate (confidence 14) [BEAFED1F], AccurateRip returned [1643D8C8]
Copy OK

Track 3

Filename C:\0IN\Arvo Pärt - The Silence of Being\Arvo Pärt - Orchestral Works\03 Collage über BACH - I. Toccata.wav

Pre-gap length 0:00:10.17

Peak level 83.7 %
Extraction speed 2.2 X
Track quality 100.0 %
Test CRC 81FD3217
Copy CRC 81FD3217
Cannot be verified as accurate (confidence 14) [C01987A0], AccurateRip returned [057036DD]
Copy OK

Track 4

Filename C:\0IN\Arvo Pärt - The Silence of Being\Arvo Pärt - Orchestral Works\04 Collage über BACH - II. Sarabande.wav

Pre-gap length 0:00:04.62

Peak level 80.2 %
Extraction speed 2.3 X
Track quality 100.0 %
Test CRC 939B89C5
Copy CRC 939B89C5
Cannot be verified as accurate (confidence 14) [8824F07B], AccurateRip returned [AEFA9BEE]
Copy OK

Track 5

Filename C:\0IN\Arvo Pärt - The Silence of Being\Arvo Pärt - Orchestral Works\05 Collage über BACH - III. Ricercare.wav

Pre-gap length 0:00:02.37

Peak level 64.9 %
Extraction speed 2.0 X
Track quality 100.0 %
Test CRC 62E0A156
Copy CRC 62E0A156
Cannot be verified as accurate (confidence 14) [23491A03], AccurateRip returned [C23E7FB9]
Copy OK

Track 6

Filename C:\0IN\Arvo Pärt - The Silence of Being\Arvo Pärt - Orchestral Works\06 Symphony No. 3 - I.wav

Pre-gap length 0:00:05.25

Peak level 94.9 %
Extraction speed 2.7 X
Track quality 100.0 %
Test CRC 6E6D08E9
Copy CRC 6E6D08E9
Cannot be verified as accurate (confidence 14) [5DD2F221], AccurateRip returned [B26CBBC1]
Copy OK

Track 7

Filename C:\0IN\Arvo Pärt - The Silence of Being\Arvo Pärt - Orchestral Works\07 Symphony No. 3 - II.wav

Pre-gap length 0:00:03.18

Peak level 85.5 %
Extraction speed 2.7 X
Track quality 100.0 %
Test CRC 0198FDB8
Copy CRC 0198FDB8
Cannot be verified as accurate (confidence 14) [DE502563], AccurateRip returned [9C8892DE]
Copy OK

Track 8

Filename C:\0IN\Arvo Pärt - The Silence of Being\Arvo Pärt - Orchestral Works\08 Symphony No. 3 - III.wav

Peak level 100.0 %
Extraction speed 3.1 X
Track quality 100.0 %
Test CRC E87D17F4
Copy CRC E87D17F4
Cannot be verified as accurate (confidence 14) [3A034B78], AccurateRip returned [B3E2BAC6]
Copy OK


No tracks could be verified as accurate
You may have a different pressing from the one(s) in the database

No errors occurred

End of status report

==== Log checksum 6CE9C17FEE870817219D25DBC31BAF1C69328AE1D7A5EEA40181A6C057FD5D30 ====

Exact Audio Copy V1.0 beta 1 from 15. November 2010

EAC extraction logfile from 3. May 2011, 3:00

Arvo Pärt / Passio (St John Passion)

Used drive : TDK CDRW8432 Adapter: 2 ID: 0

Read mode : Secure
Utilize accurate stream : Yes
Defeat audio cache : Yes
Make use of C2 pointers : No

Read offset correction : 355
Overread into Lead-In and Lead-Out : Yes
Fill up missing offset samples with silence : Yes
Delete leading and trailing silent blocks : No
Null samples used in CRC calculations : Yes
Used interface : Native Win32 interface for Win NT & 2000
Gap handling : Appended to previous track

Used output format : User Defined Encoder
Selected bitrate : 896 kBit/s
Quality : High
Add ID3 tag : No
Command line compressor : C:\Program Files (x86)\Exact Audio Copy\FLAC\FLAC.EXE
Additional command line options : -5 -V -T "ARTIST=%a" -T "TITLE=%t" -T "ALBUM=%g" -T "DATE=%y" -T "TRACKNUMBER=%n" -T "GENRE=%m" -T "COMMENT=%e" %s -o %d


TOC of the extracted CD

Track | Start | Length | Start sector | End sector
––––––––––––––––––––––––––––-
1 | 0:00.00 | 9:37.52 | 0 | 43326
2 | 9:37.52 | 11:27.48 | 43327 | 94899
3 | 21:05.25 | 26:17.47 | 94900 | 213221
4 | 47:22.72 | 14:27.03 | 213222 | 278249


Track 1

Filename C:\0IN\Arvo Pärt - The Silence of Being\Arvo Pärt - Passio (St John Passion)\01 Jesus is betrayed and arrested in Gethsemane (exordium; John 18;1-12).wav

Pre-gap length 0:00:02.00

Peak level 93.8 %
Extraction speed 1.9 X
Track quality 100.0 %
Test CRC 9974AF16
Copy CRC 9974AF16
Accurately ripped (confidence 2) [B203DC7D]
Copy OK

Track 2

Filename C:\0IN\Arvo Pärt - The Silence of Being\Arvo Pärt - Passio (St John Passion)\02 Jesus is interrogated by the high priest and denied by Peter (John 18;13-27).wav

Peak level 71.0 %
Extraction speed 2.3 X
Track quality 100.0 %
Test CRC 1A2AFF52
Copy CRC 1A2AFF52
Accurately ripped (confidence 2) [0A698D77]
Copy OK

Track 3

Filename C:\0IN\Arvo Pärt - The Silence of Being\Arvo Pärt - Passio (St John Passion)\03 Jesus is judged by Pilate and reviled by the people (John 18;28-19;15).wav

Peak level 88.9 %
Extraction speed 2.5 X
Track quality 99.9 %
Test CRC FBF79AAC
Copy CRC FBF79AAC
Accurately ripped (confidence 2) [25FED444]
Copy OK

Track 4

Filename C:\0IN\Arvo Pärt - The Silence of Being\Arvo Pärt - Passio (St John Passion)\04 Jesus is crucified at Golgotha (John 19;16-30; conclusio).wav

Peak level 97.1 %
Extraction speed 3.4 X
Track quality 100.0 %
Test CRC 442D272B
Copy CRC 442D272B
Accurately ripped (confidence 2) [535DC277]
Copy OK


All tracks accurately ripped

No errors occurred

End of status report

==== Log checksum 0150B1A30587B4A41CDF77F94CFCE5E793AAFB3CA59F55F3A2D012B489B6D3BA ====

Exact Audio Copy V1.0 beta 1 from 15. November 2010

EAC extraction logfile from 4. May 2011, 13:53

Various / Sonic Rebellion - Alternative Classical Collection

Used drive : TDK CDRW8432 Adapter: 2 ID: 0

Read mode : Secure
Utilize accurate stream : Yes
Defeat audio cache : Yes
Make use of C2 pointers : No

Read offset correction : 355
Overread into Lead-In and Lead-Out : Yes
Fill up missing offset samples with silence : Yes
Delete leading and trailing silent blocks : No
Null samples used in CRC calculations : Yes
Used interface : Native Win32 interface for Win NT & 2000
Gap handling : Appended to previous track

Used output format : User Defined Encoder
Selected bitrate : 896 kBit/s
Quality : High
Add ID3 tag : No
Command line compressor : C:\Program Files (x86)\Exact Audio Copy\FLAC\FLAC.EXE
Additional command line options : -5 -V -T "ARTIST=%a" -T "TITLE=%t" -T "ALBUM=%g" -T "DATE=%y" -T "TRACKNUMBER=%n" -T "GENRE=%m" -T "COMMENT=%e" %s -o %d


TOC of the extracted CD

Track | Start | Length | Start sector | End sector
––––––––––––––––––––––––––––-
1 | 0:00.00 | 6:47.14 | 0 | 30538
2 | 6:47.14 | 8:52.28 | 30539 | 70466
3 | 15:39.42 | 1:32.52 | 70467 | 77418
4 | 17:12.19 | 3:24.74 | 77419 | 92792
5 | 20:37.18 | 3:00.65 | 92793 | 106357
6 | 23:38.08 | 2:29.05 | 106358 | 117537
7 | 26:07.13 | 5:14.15 | 117538 | 141102
8 | 31:21.28 | 5:01.65 | 141103 | 163742
9 | 36:23.18 | 4:15.60 | 163743 | 182927
10 | 40:39.03 | 1:51.05 | 182928 | 191257
11 | 42:30.08 | 2:44.37 | 191258 | 203594
12 | 45:14.45 | 2:30.16 | 203595 | 214860
13 | 47:44.61 | 5:34.58 | 214861 | 239968
14 | 53:19.44 | 4:08.36 | 239969 | 258604
15 | 57:28.05 | 9:47.46 | 258605 | 302675
16 | 67:15.51 | 8:51.08 | 302676 | 342508


Track 1

Filename C:\0IN\Arvo Pärt - The Silence of Being\Sonic Rebellion - Alternative Classical Collection\01 Philip Glass - Symphony No. 4, 'Heroes'; Neuköln.wav

Pre-gap length 0:00:02.00

Peak level 67.2 %
Extraction speed 1.7 X
Track quality 100.0 %
Test CRC 117B08C4
Copy CRC 117B08C4
Cannot be verified as accurate (confidence 6) [EECDFE33], AccurateRip returned [9448FE7A]
Copy OK

Track 2

Filename C:\0IN\Arvo Pärt - The Silence of Being\Sonic Rebellion - Alternative Classical Collection\02 Krzysztof Penderecki - Threnody For The Victims of Hiroshima.wav

Pre-gap length 0:00:01.39

Peak level 98.5 %
Extraction speed 2.0 X
Track quality 100.0 %
Test CRC 95590DD8
Copy CRC 95590DD8
Cannot be verified as accurate (confidence 6) [43418EC6], AccurateRip returned [A49EA626]
Copy OK

Track 3

Filename C:\0IN\Arvo Pärt - The Silence of Being\Sonic Rebellion - Alternative Classical Collection\03 Conlon Nancarrow - Toccata for Violin Player & Piano.wav

Pre-gap length 0:00:01.30

Peak level 81.9 %
Extraction speed 1.4 X
Track quality 100.0 %
Test CRC 819BD36F
Copy CRC 819BD36F
Cannot be verified as accurate (confidence 6) [89D5CFCC], AccurateRip returned [6DF53800]
Copy OK

Track 4

Filename C:\0IN\Arvo Pärt - The Silence of Being\Sonic Rebellion - Alternative Classical Collection\04 John Cage - First Interlude.wav

Pre-gap length 0:00:01.41

Peak level 48.1 %
Extraction speed 2.0 X
Track quality 100.0 %
Test CRC 20E12106
Copy CRC 20E12106
Cannot be verified as accurate (confidence 6) [D93FFD1E], AccurateRip returned [7DCDC230]
Copy OK

Track 5

Filename C:\0IN\Arvo Pärt - The Silence of Being\Sonic Rebellion - Alternative Classical Collection\05 Hans Werner Henze - Fünf Nachtstücke (1990) For Violin And Piano; 1. Elegie.wav

Pre-gap length 0:00:01.74

Peak level 86.0 %
Extraction speed 1.9 X
Track quality 100.0 %
Test CRC 4784D9D7
Copy CRC 4784D9D7
Cannot be verified as accurate (confidence 6) [5373D2D0], AccurateRip returned [BA925078]
Copy OK

Track 6

Filename C:\0IN\Arvo Pärt - The Silence of Being\Sonic Rebellion - Alternative Classical Collection\06 Giacinto Scelsi - Quattro pezzi per orchestra (I).wav

Pre-gap length 0:00:01.30

Peak level 89.3 %
Extraction speed 0.8 X
Track quality 99.9 %
Test CRC 9A41472C
Copy CRC 9A41472C
Cannot be verified as accurate (confidence 6) [A51619E4], AccurateRip returned [2A41346C]
Copy OK

Track 7

Filename C:\0IN\Arvo Pärt - The Silence of Being\Sonic Rebellion - Alternative Classical Collection\07 Terry Riley - In C.wav

Pre-gap length 0:00:02.50

Peak level 89.3 %
Extraction speed 2.3 X
Track quality 100.0 %
Test CRC 2B27D0E1
Copy CRC 2B27D0E1
Cannot be verified as accurate (confidence 6) [5BDD3948], AccurateRip returned [6BD38C20]
Copy OK

Track 8

Filename C:\0IN\Arvo Pärt - The Silence of Being\Sonic Rebellion - Alternative Classical Collection\08 Charles Wuorinen - Second String Quartet.wav

Pre-gap length 0:00:01.45

Peak level 98.9 %
Extraction speed 2.3 X
Track quality 100.0 %
Test CRC 1A6E5A4E
Copy CRC 1A6E5A4E
Cannot be verified as accurate (confidence 6) [8CA80AFC], AccurateRip returned [7C1163F4]
Copy OK

Track 9

Filename C:\0IN\Arvo Pärt - The Silence of Being\Sonic Rebellion - Alternative Classical Collection\09 Edgard Varèse - Déserts - Third Electronic Interpolation (Beginning).wav

Pre-gap length 0:00:01.71

Peak level 71.0 %
Extraction speed 2.6 X
Track quality 100.0 %
Test CRC 1AC8D9FD
Copy CRC 1AC8D9FD
Cannot be verified as accurate (confidence 6) [E3D7EB95], AccurateRip returned [B5A5781D]
Copy OK

Track 10

Filename C:\0IN\Arvo Pärt - The Silence of Being\Sonic Rebellion - Alternative Classical Collection\10 George Crumb - Songs, Drones & Refrains of Death (1962-1968), Death-Drone II.wav

Pre-gap length 0:00:04.00

Peak level 82.0 %
Extraction speed 2.1 X
Track quality 100.0 %
Test CRC 47E44B63
Copy CRC 47E44B63
Cannot be verified as accurate (confidence 6) [18493713], AccurateRip returned [371BCF85]
Copy OK

Track 11

Filename C:\0IN\Arvo Pärt - The Silence of Being\Sonic Rebellion - Alternative Classical Collection\11 György Ligeti - Six Bagatelles for Wind Quintet (1953) Allegro grazioso.wav

Pre-gap length 0:00:02.32

Peak level 66.8 %
Extraction speed 2.4 X
Track quality 100.0 %
Test CRC 38CAEDA2
Copy CRC 38CAEDA2
Cannot be verified as accurate (confidence 6) [0B7BCAE2], AccurateRip returned [FE72C794]
Copy OK

Track 12

Filename C:\0IN\Arvo Pärt - The Silence of Being\Sonic Rebellion - Alternative Classical Collection\12 Sofia Gubaidulina - Silenzio, for bayan, violin and cello; Silenzio II.wav

Pre-gap length 0:00:02.30

Peak level 79.8 %
Extraction speed 2.4 X
Track quality 100.0 %
Test CRC 0F2036EE
Copy CRC 0F2036EE
Cannot be verified as accurate (confidence 6) [C90F8EEB], AccurateRip returned [52365A13]
Copy OK

Track 13

Filename C:\0IN\Arvo Pärt - The Silence of Being\Sonic Rebellion - Alternative Classical Collection\13 Jørgen Plaetner - Beta.wav

Pre-gap length 0:00:02.00

Peak level 96.9 %
Extraction speed 3.0 X
Track quality 100.0 %
Test CRC 212B2967
Copy CRC 212B2967
Cannot be verified as accurate (confidence 6) [7AB7D7AD], AccurateRip returned [35686005]
Copy OK

Track 14

Filename C:\0IN\Arvo Pärt - The Silence of Being\Sonic Rebellion - Alternative Classical Collection\14 John Adams - Shaker Loops - A Final Shaking.wav

Pre-gap length 0:00:02.50

Peak level 58.4 %
Extraction speed 2.8 X
Track quality 100.0 %
Test CRC A14A28CF
Copy CRC A14A28CF
Cannot be verified as accurate (confidence 6) [9BBC3DF2], AccurateRip returned [19B1AAFE]
Copy OK

Track 15

Filename C:\0IN\Arvo Pärt - The Silence of Being\Sonic Rebellion - Alternative Classical Collection\15 Einojuhani Rautavaara - Piano Concerto 1 - Andante.wav

Pre-gap length 0:00:02.10

Peak level 99.6 %
Extraction speed 3.3 X
Track quality 100.0 %
Test CRC 245991DE
Copy CRC 245991DE
Cannot be verified as accurate (confidence 6) [6C46BA4C], AccurateRip returned [1DE8D056]
Copy OK

Track 16

Filename C:\0IN\Arvo Pärt - The Silence of Being\Sonic Rebellion - Alternative Classical Collection\16 Arvo Pärt - Fratres for Strings & Percussion.wav

Pre-gap length 0:00:02.00

Peak level 89.8 %
Extraction speed 3.4 X
Track quality 100.0 %
Test CRC 15072616
Copy CRC 15072616
Cannot be verified as accurate (confidence 6) [EE71D0BF], AccurateRip returned [59FCAC53]
Copy OK


No tracks could be verified as accurate
You may have a different pressing from the one(s) in the database

No errors occurred

End of status report

==== Log checksum DBB7FACFD3440BB002A4871CC54C1130F338CBF6500128222A7FEA40D75E6403 ====


Thanks to the Original customer.