Subcategories
Tags
Language
Tags

Aurora - Infections Of A Different Kind Of Human (2020)

Posted By: delpotro
Aurora - Infections Of A Different Kind Of Human (2020)

Aurora - Infections Of A Different Kind Of Human (2020)
EAC Rip | FLAC (tracks+log+.cue) - 495 Mb | MP3 CBR 320 kbps - 187 Mb | 01:21:20
Pop, Female Vocal | Label: Decca Records

Infections Of A Different Kind Of Human is the complete collection of Infections Of A Different Kind and A Different Kind Of Human. Step I, release in 2018 was a claxon call, a call to arms, a record which oozes confidence, colour and intrigue. “There’s a deeper understanding of myself and what I want to say and do than on my first album. It’s more tuned into my soul and who I am,” explains the Bergen-based artist of IOADK-SI. “It’s about the many, many different aspects of what it is to be human. It covers the way we hurt and we love and the way we are so beautiful but also so awful.” ‘Step 2’, as AURORA refers to it, is a record that focuses on the ecological crisis and the consequences of the rampant individualism so prevalent in today’s society.
Tracklist:
1. Queendom (03:28)
2. Forgotten Love (03:31)
3. Gentle Earthquakes (03:49)
4. All is Soft Inside (05:11)
5. It Happened Quiet (04:11)
6. Churchyard (03:48)
7. Soft Universe (04:02)
8. Infections Of A Different Kind (05:29)
9. The River (03:39)
10. Animal (03:43)
11. Dance On The Moon (03:38)
12. Daydreamer (03:40)
13. Hunger (02:47)
14. Soulless Creatures (05:04)
15. In Bottles (03:58)
16. A Different Kind Of Human (04:03)
17. Apple Tree (03:10)
18. The Seed (04:41)
19. Mothership (02:19)
20. Exist For Love (04:20)
21. The River (Live At J-Wave (81.3FM)) (03:32)

Exact Audio Copy V1.6 from 23. October 2020

EAC extraction logfile from 11. March 2021, 22:09

AURORA / Infections Of A Different Kind Of Human

Used drive : HL-DT-STDVDRAM GH24NSD1 Adapter: 1 ID: 0

Read mode : Secure
Utilize accurate stream : Yes
Defeat audio cache : Yes
Make use of C2 pointers : No

Read offset correction : 6
Overread into Lead-In and Lead-Out : No
Fill up missing offset samples with silence : Yes
Delete leading and trailing silent blocks : No
Null samples used in CRC calculations : Yes
Used interface : Native Win32 interface for Win NT & 2000
Gap handling : Appended to previous track

Used output format : User Defined Encoder
Selected bitrate : 1024 kBit/s
Quality : High
Add ID3 tag : No
Command line compressor : C:\Program Files (x86)\Exact Audio Copy\Flac\flac.exe
Additional command line options : -8 -V -T "ARTIST=%artist%" -T "TITLE=%title%" -T "ALBUM=%albumtitle%" -T "DATE=%year%" -T "TRACKNUMBER=%tracknr%" -T "GENRE=%genre%" -T "PERFORMER=%albuminterpret%" -T "COMPOSER=%composer%" -T "ALBUMARTIST=%albumartist%" -T "DISCNUMBER=%cdnumber%" -T "TOTALDISCS=%totalcds%" -T "TOTALTRACKS=%numtracks%" -T "COMMENT=%comment%" %source% -o %dest%


TOC of the extracted CD

Track | Start | Length | Start sector | End sector
––––––––––––––––––––––––––––-
1 | 0:00.00 | 3:27.34 | 0 | 15558
2 | 3:27.34 | 3:28.39 | 15559 | 31197
3 | 6:55.73 | 3:47.23 | 31198 | 48245
4 | 10:43.21 | 5:08.69 | 48246 | 71414
5 | 15:52.15 | 4:09.06 | 71415 | 90095
6 | 20:01.21 | 3:45.74 | 90096 | 107044
7 | 23:47.20 | 3:59.39 | 107045 | 125008
8 | 27:46.59 | 5:27.62 | 125009 | 149595
9 | 33:14.46 | 3:37.63 | 149596 | 165933
10 | 36:52.34 | 3:35.28 | 165934 | 182086
11 | 40:27.62 | 3:36.21 | 182087 | 198307
12 | 44:04.08 | 3:39.02 | 198308 | 214734
13 | 47:43.10 | 2:46.65 | 214735 | 227249
14 | 50:30.00 | 5:02.03 | 227250 | 249902
15 | 55:32.03 | 3:58.11 | 249903 | 267763
16 | 59:30.14 | 4:01.06 | 267764 | 285844
17 | 63:31.20 | 3:08.06 | 285845 | 299950
18 | 66:39.26 | 4:26.71 | 299951 | 319971
19 | 71:06.22 | 2:16.60 | 319972 | 330231
20 | 73:23.07 | 4:14.51 | 330232 | 349332
21 | 77:37.58 | 3:43.14 | 349333 | 366071


Track 1

Filename C:\Rips\AURORA - Infections Of A Different Kind Of Human CD FLAC Japan Release UICO-1318\01 Queendom.wav

Pre-gap length 0:00:02.00

Peak level 94.0 %
Extraction speed 0.9 X
Track quality 99.9 %
Test CRC F4690133
Copy CRC F4690133
Accurately ripped (confidence 3) [94026F03] (AR v2)
Copy OK

Track 2

Filename C:\Rips\AURORA - Infections Of A Different Kind Of Human CD FLAC Japan Release UICO-1318\02 Forgotten Love.wav

Peak level 89.7 %
Extraction speed 1.2 X
Track quality 100.0 %
Test CRC 88DF0A80
Copy CRC 88DF0A80
Accurately ripped (confidence 3) [244A5EA5] (AR v2)
Copy OK

Track 3

Filename C:\Rips\AURORA - Infections Of A Different Kind Of Human CD FLAC Japan Release UICO-1318\03 Gentle Earthquakes.wav

Peak level 90.6 %
Extraction speed 1.3 X
Track quality 100.0 %
Test CRC 7E96BEC4
Copy CRC 7E96BEC4
Accurately ripped (confidence 3) [00C0AF80] (AR v2)
Copy OK

Track 4

Filename C:\Rips\AURORA - Infections Of A Different Kind Of Human CD FLAC Japan Release UICO-1318\04 All Is Soft Inside.wav

Peak level 90.2 %
Extraction speed 1.5 X
Track quality 100.0 %
Test CRC 069BCBAA
Copy CRC 069BCBAA
Accurately ripped (confidence 3) [B93C8E64] (AR v2)
Copy OK

Track 5

Filename C:\Rips\AURORA - Infections Of A Different Kind Of Human CD FLAC Japan Release UICO-1318\05 It Happened Quiet.wav

Peak level 84.1 %
Extraction speed 1.5 X
Track quality 100.0 %
Test CRC 90610B56
Copy CRC 90610B56
Accurately ripped (confidence 3) [724AAED8] (AR v2)
Copy OK

Track 6

Filename C:\Rips\AURORA - Infections Of A Different Kind Of Human CD FLAC Japan Release UICO-1318\06 Churchyard.wav

Peak level 91.0 %
Extraction speed 1.6 X
Track quality 100.0 %
Test CRC BE9FDAAC
Copy CRC BE9FDAAC
Accurately ripped (confidence 3) [0B9A8947] (AR v2)
Copy OK

Track 7

Filename C:\Rips\AURORA - Infections Of A Different Kind Of Human CD FLAC Japan Release UICO-1318\07 Soft Universe.wav

Peak level 94.5 %
Extraction speed 1.6 X
Track quality 100.0 %
Test CRC 270F8EE3
Copy CRC 270F8EE3
Accurately ripped (confidence 3) [4D09683E] (AR v2)
Copy OK

Track 8

Filename C:\Rips\AURORA - Infections Of A Different Kind Of Human CD FLAC Japan Release UICO-1318\08 Infections Of A Different Kind.wav

Peak level 89.1 %
Extraction speed 1.8 X
Track quality 100.0 %
Test CRC 3BB8FE49
Copy CRC 3BB8FE49
Accurately ripped (confidence 3) [BE53604E] (AR v2)
Copy OK

Track 9

Filename C:\Rips\AURORA - Infections Of A Different Kind Of Human CD FLAC Japan Release UICO-1318\09 The River.wav

Peak level 99.8 %
Extraction speed 1.8 X
Track quality 100.0 %
Test CRC E84B2FFA
Copy CRC E84B2FFA
Accurately ripped (confidence 2) [F6885A27] (AR v2)
Copy OK

Track 10

Filename C:\Rips\AURORA - Infections Of A Different Kind Of Human CD FLAC Japan Release UICO-1318\10 Animal.wav

Peak level 99.8 %
Extraction speed 1.8 X
Track quality 100.0 %
Test CRC 7D8F4115
Copy CRC 7D8F4115
Accurately ripped (confidence 2) [F3C08B5A] (AR v2)
Copy OK

Track 11

Filename C:\Rips\AURORA - Infections Of A Different Kind Of Human CD FLAC Japan Release UICO-1318\11 Dance On The Moon.wav

Peak level 99.8 %
Extraction speed 1.9 X
Track quality 100.0 %
Test CRC FA05C099
Copy CRC FA05C099
Accurately ripped (confidence 2) [FEF10B1A] (AR v2)
Copy OK

Track 12

Filename C:\Rips\AURORA - Infections Of A Different Kind Of Human CD FLAC Japan Release UICO-1318\12 Daydreamer.wav

Peak level 99.8 %
Extraction speed 1.9 X
Track quality 100.0 %
Test CRC B88A145E
Copy CRC B88A145E
Accurately ripped (confidence 2) [503CC560] (AR v2)
Copy OK

Track 13

Filename C:\Rips\AURORA - Infections Of A Different Kind Of Human CD FLAC Japan Release UICO-1318\13 Hunger.wav

Peak level 99.8 %
Extraction speed 1.9 X
Track quality 100.0 %
Test CRC 9EA6FA1E
Copy CRC 9EA6FA1E
Accurately ripped (confidence 2) [58F60636] (AR v2)
Copy OK

Track 14

Filename C:\Rips\AURORA - Infections Of A Different Kind Of Human CD FLAC Japan Release UICO-1318\14 Soulles Creatures.wav

Peak level 99.8 %
Extraction speed 2.1 X
Track quality 100.0 %
Test CRC A1AC54FE
Copy CRC A1AC54FE
Accurately ripped (confidence 2) [23020164] (AR v2)
Copy OK

Track 15

Filename C:\Rips\AURORA - Infections Of A Different Kind Of Human CD FLAC Japan Release UICO-1318\15 In Bottles.wav

Peak level 99.8 %
Extraction speed 2.1 X
Track quality 100.0 %
Test CRC 7390FAA9
Copy CRC 7390FAA9
Accurately ripped (confidence 2) [113157C4] (AR v2)
Copy OK

Track 16

Filename C:\Rips\AURORA - Infections Of A Different Kind Of Human CD FLAC Japan Release UICO-1318\16 A Different Kind Of Human.wav

Peak level 99.8 %
Extraction speed 2.2 X
Track quality 100.0 %
Test CRC 7DF2B93A
Copy CRC 7DF2B93A
Accurately ripped (confidence 2) [C566C761] (AR v2)
Copy OK

Track 17

Filename C:\Rips\AURORA - Infections Of A Different Kind Of Human CD FLAC Japan Release UICO-1318\17 Aplle Tree.wav

Peak level 99.8 %
Extraction speed 2.1 X
Track quality 100.0 %
Test CRC 2C25959B
Copy CRC 2C25959B
Accurately ripped (confidence 2) [5EE46A27] (AR v2)
Copy OK

Track 18

Filename C:\Rips\AURORA - Infections Of A Different Kind Of Human CD FLAC Japan Release UICO-1318\18 The Seed.wav

Peak level 99.8 %
Extraction speed 2.3 X
Track quality 100.0 %
Test CRC 3D46CF4C
Copy CRC 3D46CF4C
Accurately ripped (confidence 2) [39C52613] (AR v2)
Copy OK

Track 19

Filename C:\Rips\AURORA - Infections Of A Different Kind Of Human CD FLAC Japan Release UICO-1318\19 Mothership.wav

Peak level 71.7 %
Extraction speed 1.7 X
Track quality 99.9 %
Test CRC 77004DCE
Copy CRC 77004DCE
Accurately ripped (confidence 2) [E7C724E3] (AR v2)
Copy OK

Track 20

Filename C:\Rips\AURORA - Infections Of A Different Kind Of Human CD FLAC Japan Release UICO-1318\20 Exist For Love.wav

Peak level 99.7 %
Extraction speed 2.3 X
Track quality 100.0 %
Test CRC 662561B3
Copy CRC 662561B3
Accurately ripped (confidence 2) [060A9665] (AR v2)
Copy OK

Track 21

Filename C:\Rips\AURORA - Infections Of A Different Kind Of Human CD FLAC Japan Release UICO-1318\21 The River (Live At J-Wave 81.3 FM).wav

Peak level 82.6 %
Extraction speed 2.4 X
Track quality 100.0 %
Test CRC 883A42C6
Copy CRC 883A42C6
Accurately ripped (confidence 2) [F4FE1EEB] (AR v2)
Copy OK


All tracks accurately ripped

No errors occurred

End of status report

–– CUETools DB Plugin V2.1.6

[CTDB TOCID: Y4R2yTrfgrRB_qifpK0JddXWzD4-] found
Submit result: Y4R2yTrfgrRB_qifpK0JddXWzD4- has been confirmed
Track | CTDB Status
1 | (17/17) Accurately ripped
2 | (17/17) Accurately ripped
3 | (17/17) Accurately ripped
4 | (17/17) Accurately ripped
5 | (17/17) Accurately ripped
6 | (17/17) Accurately ripped
7 | (17/17) Accurately ripped
8 | (17/17) Accurately ripped
9 | (17/17) Accurately ripped
10 | (17/17) Accurately ripped
11 | (17/17) Accurately ripped
12 | (17/17) Accurately ripped
13 | (17/17) Accurately ripped
14 | (17/17) Accurately ripped
15 | (17/17) Accurately ripped
16 | (17/17) Accurately ripped
17 | (17/17) Accurately ripped
18 | (17/17) Accurately ripped
19 | (17/17) Accurately ripped
20 | (17/17) Accurately ripped
21 | (17/17) Accurately ripped


==== Log checksum 3CCA4930796112A205700BE43F62A513C72968518B656F74779007FED0AD18D8 ====

Thanks to the Original ripper !